<?xml version="1.0" standalone="no"?>
<!DOCTYPE svg PUBLIC "-//W3C//DTD SVG 1.1//EN" "http://www.w3.org/Graphics/SVG/1.1/DTD/svg11.dtd" >
<svg xmlns="http://www.w3.org/2000/svg">
<metadata>Generated by IcoMoon</metadata>
<defs>
<font id="icomoon" horiz-adv-x="512">
<font-face units-per-em="512" ascent="480" descent="-32" />
<missing-glyph horiz-adv-x="512" />
<glyph unicode="&#x20;" d="" horiz-adv-x="256" />
<glyph unicode="&#xe002;" d="M512 176l-96 96v144h-64v-80l-96 96-256-256v-16h64v-160h160v96h64v-96h160v160h64z" />
<glyph unicode="&#xe008;" d="M448 352v64h-448v-352c0-17.673 14.327-32 32-32h432c26.511 0 48 21.489 48 48v272h-64zM416 64h-384v320h384v-320zM64 320h320v-32h-320zM256 256h128v-32h-128zM256 192h128v-32h-128zM256 128h96v-32h-96zM64 256h160v-160h-160z" />
<glyph unicode="&#xe00a;" d="M192 160l64 32 224 224-32 32-224-224-32-64zM144.65 46.451c-15.816 33.364-32.833 50.381-66.198 66.197l49.548 136.396 64 38.956 192 192h-96l-192-192-96-320 320 96 192 192v96l-192-192-38.956-64z" />
<glyph unicode="&#xe00b;" d="M424 312l-216-216h-80v80l216 216zM451 339l-80 80 28.029 28.029c9.334 9.334 24.607 9.334 33.941 0l46.059-46.059c9.334-9.334 9.334-24.607 0-33.941l-28.029-28.029zM384 198.209v-166.209h-320v320h176l64 64h-256c-26.4 0-48-21.6-48-48v-352c0-26.4 21.6-48 48-48h352c26.4 0 48 21.6 48 48v239.681l-64-57.472z" />
<glyph unicode="&#xe018;" d="M448 384h-384v-320h384v320zM512 448v0-448h-512v448h512zM416 96h-320v64l96 160 131.5-160 92.5 64v-32zM320 304c0 26.51 21.49 48 48 48s48-21.49 48-48c0-26.51-21.49-48-48-48-26.51 0-48 21.49-48 48z" />
<glyph unicode="&#xe01a;" d="M64 352v-320h448v320h-448zM480 85.333l-64 106.667-72.533-60.444-55.467 92.444-192-160v256h384v-234.667zM128 240c0 26.51 21.49 48 48 48s48-21.49 48-48c0-26.51-21.49-48-48-48-26.51 0-48 21.49-48 48zM448 416h-448v-320h32v288h416z" />
<glyph unicode="&#xe02f;" d="M489.42 351.874c-5.294 0-10.729-1.861-15.718-5.383l-89.702-63.307v52.816c0 26.4-21.6 48-48 48h-288c-26.4 0-48-21.6-48-48v-224c0-26.4 21.6-48 48-48h288c26.4 0 48 21.6 48 48v52.815l89.701-63.307c4.989-3.521 10.424-5.382 15.717-5.383 0.001 0 0.001 0 0.003 0 7.044 0 13.477 3.248 17.646 8.911 3.228 4.385 4.934 10.027 4.934 16.318v205.291c-0.001 16.563-11.36 25.229-22.581 25.229z" />
<glyph unicode="&#xe03e;" d="M448 384h-384c-35.2 0-64-28.8-64-64v-192c0-35.2 28.8-64 64-64h384c35.2 0 64 28.8 64 64v192c0 35.2-28.8 64-64 64zM160 128h-32l-64 106.667v-106.667h-32v160h32l64-106.667v106.667h32v-160zM288 256h-64v-32h64v-32h-64v-32h64v-31.999l-96-0.001v160h96v-32zM480 128h-47.999l-32.001 64-32-64h-48v160h32v-128l32 64h32.001l31.999-63.998v127.998h32v-160z" />
<glyph unicode="&#xe03f;" d="M320 192c52.935 0 100.935-21.533 135.701-56.299l-45.234-45.234c-23.177 23.178-55.178 37.533-90.467 37.533s-67.289-14.355-90.467-37.533l-45.234 45.234c34.766 34.766 82.766 56.299 135.701 56.299zM93.726 226.274c60.44 60.44 140.799 93.726 226.274 93.726s165.834-33.286 226.275-93.726l-45.255-45.254c-48.353 48.352-112.64 74.98-181.020 74.98-68.381 0-132.667-26.628-181.019-74.981l-45.255 45.255zM494.392 412.781c53.351-22.566 101.258-54.864 142.391-95.998v0l-45.254-45.254c-72.528 72.528-168.96 112.471-271.529 112.471-102.57 0-199-39.943-271.529-112.471l-45.255 45.255c41.134 41.133 89.041 73.431 142.392 95.997 55.252 23.369 113.926 35.219 174.392 35.219 60.466 0 119.139-11.85 174.392-35.219zM288 32c0 17.673 14.327 32 32 32s32-14.327 32-32c0-17.673-14.327-32-32-32-17.673 0-32 14.327-32 32z" horiz-adv-x="640" />
<glyph unicode="&#xe043;" d="M192 224c0 35.346 28.654 64 64 64s64-28.654 64-64c0-35.346-28.654-64-64-64-35.346 0-64 28.654-64 64zM332.174 364.737c49.926-27.079 83.826-79.949 83.826-140.737s-33.9-113.658-83.826-140.737c22.033 35.063 35.826 85.135 35.826 140.737 0 55.602-13.793 105.674-35.826 140.737zM144 224c0-55.602 13.792-105.674 35.826-140.737-49.926 27.080-83.826 79.949-83.826 140.737 0 60.788 33.9 113.657 83.826 140.737-22.034-35.063-35.826-85.135-35.826-140.737zM48 224c0-85.95 27.202-163.092 70.326-215.861-71.151 45.474-118.326 125.157-118.326 215.861 0 90.704 47.175 170.387 118.326 215.861-43.124-52.769-70.326-129.911-70.326-215.861zM393.676 439.86c71.149-45.473 118.324-125.156 118.324-215.86s-47.175-170.387-118.324-215.86c43.122 52.768 70.324 129.91 70.324 215.86 0 85.95-27.202 163.092-70.324 215.86z" />
<glyph unicode="&#xe04a;" d="M288.117 335.365l121.356 40.716 101.792-303.392-121.356-40.716zM0 32h128v352h-128v-352zM32 320h64v-32h-64v32zM160 32h128v352h-128v-352zM192 320h64v-32h-64v32z" />
<glyph unicode="&#xe04d;" d="M432 480h-384c-26.4 0-48-21.6-48-48v-416c0-26.4 21.6-48 48-48h384c26.4 0 48 21.6 48 48v416c0 26.4-21.6 48-48 48zM416 32h-352v384h352v-384zM128 192h224v-32h-224zM128 128h224v-32h-224zM160 336c0 26.51 21.49 48 48 48s48-21.49 48-48c0-26.51-21.49-48-48-48-26.51 0-48 21.49-48 48zM240 288h-64c-26.4 0-48-14.4-48-32v-32h160v32c0 17.6-21.6 32-48 32z" />
<glyph unicode="&#xe052;" d="M352 480h-320v-512h448v384l-128 128zM448 0h-384v448h288v-96h96v-352zM128 96h256v-32h-256zM128 160h256v-32h-256zM128 224h256v-32h-256z" />
<glyph unicode="&#xe053;" d="M448 96v64h-64v-64h-64v-64h64v-64h64v64h64v64zM32 448h288v-96h96v-160h32v160l-128 128h-320v-512h288v32h-256z" />
<glyph unicode="&#xe054;" d="M320 96h192v-64h-192zM32 448h288v-96h96v-160h32v160l-128 128h-320v-512h288v32h-256z" />
<glyph unicode="&#xe055;" d="M288 256h-96v-160h-80l128-128 128 128h-80zM320 480h-288v-192l16-320 16 320v160h256v-96h96v-64l16-320 16 320v64z" />
<glyph unicode="&#xe056;" d="M192-32h96v160h80l-128 128-128-128h80v-160zM320 480h-288v-192l16-320 16 320v160h256v-96h96v-64l16-320 16 320v64l-128 128z" />
<glyph unicode="&#xe057;" d="M352-32l-96 112 40.75 40.75 55.25-55.625 128 126.875 32-32zM32 448h288v-96h96v-160h32v160l-128 128h-320v-512h288v32h-256v448z" />
<glyph unicode="&#xe058;" d="M32 448h288v-96h96v-160h32v160l-128 128h-320v-512h288v32h-256v448zM461.256 64l50.744 50.744v45.256h-45.256l-50.744-50.744-50.744 50.744h-45.256v-45.256l50.744-50.744-50.744-50.744v-45.256h45.256l50.744 50.744 50.744-50.744h45.256v45.256z" />
<glyph unicode="&#xe059;" d="M451.716 380.285l-71.432 71.431c-15.556 15.556-46.284 28.284-68.284 28.284h-240c-22 0-40-18-40-40v-432c0-22 18-40 40-40h368c22 0 40 18 40 40v304c0 22-12.728 52.729-28.284 68.285zM429.089 357.657c1.565-1.565 3.125-3.487 4.64-5.657h-81.729v81.728c2.17-1.515 4.092-3.075 5.657-4.64l71.432-71.431zM448 8c0-4.336-3.664-8-8-8h-368c-4.336 0-8 3.664-8 8v432c0 4.336 3.664 8 8 8h240c2.416 0 5.127-0.305 8-0.852v-127.148h127.148c0.547-2.873 0.852-5.583 0.852-8v-304z" />
<glyph unicode="&#xe07d;" d="M0 416h64v-320h-64zM96 416h32v-320h-32zM160 416h32v-320h-32zM256 416h32v-320h-32zM384 416h32v-320h-32zM480 416h32v-320h-32zM320 416h16v-320h-16zM224 416h16v-320h-16zM432 416h16v-320h-16zM0 64h32v-32h-32zM96 64h32v-32h-32zM160 64h32v-32h-32zM320 64h32v-32h-32zM480 64h32v-32h-32zM384 64h64v-32h-64zM224 64h64v-32h-64z" />
<glyph unicode="&#xe07e;" d="M160 448h-128v-128h128v128zM192 480v0-192h-192v192h192zM64 416h64v-64h-64zM480 448h-128v-128h128v128zM512 480v0-192h-192v192h192zM384 416h64v-64h-64zM160 128h-128v-128h128v128zM192 160v0-192h-192v192h192zM64 96h64v-64h-64zM224 480h32v-32h-32zM256 448h32v-32h-32zM224 416h32v-32h-32zM256 384h32v-32h-32zM224 352h32v-32h-32zM256 320h32v-32h-32zM224 288h32v-32h-32zM224 224h32v-32h-32zM256 192h32v-32h-32zM224 160h32v-32h-32zM256 128h32v-32h-32zM224 96h32v-32h-32zM256 64h32v-32h-32zM224 32h32v-32h-32zM256 0h32v-32h-32zM480 224h32v-32h-32zM32 224h32v-32h-32zM64 256h32v-32h-32zM0 256h32v-32h-32zM128 256h32v-32h-32zM160 224h32v-32h-32zM192 256h32v-32h-32zM288 224h32v-32h-32zM320 256h32v-32h-32zM352 224h32v-32h-32zM384 256h32v-32h-32zM416 224h32v-32h-32zM448 256h32v-32h-32zM480 160h32v-32h-32zM288 160h32v-32h-32zM320 192h32v-32h-32zM352 160h32v-32h-32zM416 160h32v-32h-32zM448 192h32v-32h-32zM480 96h32v-32h-32zM288 96h32v-32h-32zM320 128h32v-32h-32zM384 128h32v-32h-32zM416 96h32v-32h-32zM448 128h32v-32h-32zM480 32h32v-32h-32zM320 64h32v-32h-32zM352 32h32v-32h-32zM384 64h32v-32h-32zM416 32h32v-32h-32zM320 0h32v-32h-32zM384 0h32v-32h-32zM448 0h32v-32h-32z" />
<glyph unicode="&#xe082;" d="M488.791 382.769c16.993-4.855 26.833-22.567 21.978-39.56l-64-224c-3.925-13.737-16.482-23.209-30.769-23.209h-272c-16.138 0-29.751 12.018-31.753 28.031l-28.496 227.969h-51.751c-17.673 0-32 14.327-32 32s14.327 32 32 32h80c16.138 0 29.751-12.017 31.753-28.031l28.496-227.969h219.613l57.369 200.791c4.855 16.993 22.568 26.832 39.56 21.978zM128 16c0 26.51 21.49 48 48 48s48-21.49 48-48c0-26.51-21.49-48-48-48-26.51 0-48 21.49-48 48zM320 16c0 26.51 21.49 48 48 48s48-21.49 48-48c0-26.51-21.49-48-48-48-26.51 0-48 21.49-48 48z" />
<glyph unicode="&#xe083;" d="M488.791 382.769c-16.992 4.854-34.705-4.985-39.56-21.978l-2.511-8.791h-298.471l-4.496 35.969c-2.002 16.014-15.615 28.031-31.753 28.031h-80c-17.673 0-32-14.327-32-32s14.327-32 32-32h51.751l28.496-227.969c2.002-16.013 15.615-28.031 31.753-28.031h272c14.287 0 26.844 9.472 30.769 23.209l64 224c4.855 16.993-4.985 34.705-21.978 39.56zM256 224v32h63.998v-32h-63.998zM319.998 192v-32h-63.998v32h63.998zM256 288v32h63.998v-32h-63.998zM152.249 320h71.751v-32h-67.751l-4 32zM160.249 256h63.751v-32h-59.751l-4 32zM168.249 192h55.751v-32h-51.751l-4 32zM391.862 160h-39.864v32h49.007l-9.143-32zM410.148 224h-58.15v32h67.293l-9.143-32zM428.434 288h-76.436v32h85.579l-9.143-32zM128 16c0 26.51 21.49 48 48 48s48-21.49 48-48c0-26.51-21.49-48-48-48-26.51 0-48 21.49-48 48zM320 16c0 26.51 21.49 48 48 48s48-21.49 48-48c0-26.51-21.49-48-48-48-26.51 0-48 21.49-48 48z" />
<glyph unicode="&#xe085;" d="M416 96h-272c-16.138 0-29.751 12.018-31.753 28.031l-28.496 227.969h-51.751c-17.673 0-32 14.327-32 32s14.327 32 32 32h80c16.138 0 29.751-12.017 31.753-28.031l28.496-227.969h219.613l57.369 200.791c4.854 16.993 22.567 26.832 39.56 21.978 16.993-4.855 26.833-22.567 21.978-39.56l-64-224c-3.925-13.737-16.482-23.209-30.769-23.209zM128 16c0 26.51 21.49 48 48 48s48-21.49 48-48c0-26.51-21.49-48-48-48-26.51 0-48 21.49-48 48zM320 16c0 26.51 21.49 48 48 48s48-21.49 48-48c0-26.51-21.49-48-48-48-26.51 0-48 21.49-48 48zM384 256h-64v-64h-64v64h-64v64h64v64h64v-64h64z" />
<glyph unicode="&#xe086;" d="M416 96h-272c-16.138 0-29.751 12.018-31.753 28.031l-28.496 227.969h-51.751c-17.673 0-32 14.327-32 32s14.327 32 32 32h80c16.138 0 29.751-12.017 31.753-28.031l28.496-227.969h219.613l57.369 200.791c4.854 16.993 22.567 26.832 39.56 21.978 16.993-4.855 26.833-22.567 21.978-39.56l-64-224c-3.925-13.737-16.482-23.209-30.769-23.209zM128 16c0 26.51 21.49 48 48 48s48-21.49 48-48c0-26.51-21.49-48-48-48-26.51 0-48 21.49-48 48zM320 16c0 26.51 21.49 48 48 48s48-21.49 48-48c0-26.51-21.49-48-48-48-26.51 0-48 21.49-48 48zM192 320h192v-64h-192z" />
<glyph unicode="&#xe087;" d="M488.791 382.769c16.993-4.855 26.833-22.567 21.978-39.56l-64-224c-3.925-13.737-16.482-23.209-30.769-23.209h-272c-16.138 0-29.751 12.018-31.753 28.031l-28.496 227.969h-51.751c-17.673 0-32 14.327-32 32s14.327 32 32 32h80c16.138 0 29.751-12.017 31.753-28.031l28.496-227.969h219.613l57.369 200.791c4.855 16.993 22.568 26.832 39.56 21.978zM128 16c0 26.51 21.49 48 48 48s48-21.49 48-48c0-26.51-21.49-48-48-48-26.51 0-48 21.49-48 48zM320 16c0 26.51 21.49 48 48 48s48-21.49 48-48c0-26.51-21.49-48-48-48-26.51 0-48 21.49-48 48zM182 320h74v96h64v-96h74l-106-114z" />
<glyph unicode="&#xe088;" d="M488.791 382.769c16.993-4.855 26.833-22.567 21.978-39.56l-64-224c-3.925-13.737-16.482-23.209-30.769-23.209h-272c-16.138 0-29.751 12.018-31.753 28.031l-28.496 227.969h-51.751c-17.673 0-32 14.327-32 32s14.327 32 32 32h80c16.138 0 29.751-12.017 31.753-28.031l28.496-227.969h219.613l57.369 200.791c4.855 16.993 22.568 26.832 39.56 21.978zM128 16c0 26.51 21.49 48 48 48s48-21.49 48-48c0-26.51-21.49-48-48-48-26.51 0-48 21.49-48 48zM320 16c0 26.51 21.49 48 48 48s48-21.49 48-48c0-26.51-21.49-48-48-48-26.51 0-48 21.49-48 48zM394 288h-74v-96h-64v96h-74l106 114z" />
<glyph unicode="&#xe089;" d="M416 96h-272c-16.138 0-29.751 12.018-31.753 28.031l-28.496 227.969h-51.751c-17.673 0-32 14.327-32 32s14.327 32 32 32h80c16.138 0 29.751-12.017 31.753-28.031l28.496-227.969h219.613l57.369 200.791c4.854 16.993 22.567 26.832 39.56 21.978 16.993-4.855 26.833-22.567 21.978-39.56l-64-224c-3.925-13.737-16.482-23.209-30.769-23.209zM128 16c0 26.51 21.49 48 48 48s48-21.49 48-48c0-26.51-21.49-48-48-48-26.51 0-48 21.49-48 48zM320 16c0 26.51 21.49 48 48 48s48-21.49 48-48c0-26.51-21.49-48-48-48-26.51 0-48 21.49-48 48zM429.312 402.918l-134.153-178.318-80.159 103.49 26.612 24.425 51.547-45.64 113.822 115.375z" />
<glyph unicode="&#xe08a;" d="M488.791 382.769c16.993-4.855 26.833-22.567 21.978-39.56l-64-224c-3.925-13.737-16.482-23.209-30.769-23.209h-272c-16.138 0-29.751 12.018-31.753 28.031l-28.496 227.969h-51.751c-17.673 0-32 14.327-32 32s14.327 32 32 32h80c16.138 0 29.751-12.017 31.753-28.031l28.496-227.969h219.613l57.369 200.791c4.855 16.993 22.568 26.832 39.56 21.978zM128 16c0 26.51 21.49 48 48 48s48-21.49 48-48c0-26.51-21.49-48-48-48-26.51 0-48 21.49-48 48zM320 16c0 26.51 21.49 48 48 48s48-21.49 48-48c0-26.51-21.49-48-48-48-26.51 0-48 21.49-48 48zM402.628 250.628l-45.256-45.256-69.372 69.373-69.373-69.372-45.255 45.255 69.373 69.372-69.372 69.373 45.254 45.254 69.373-69.372 69.372 69.373 45.256-45.255-69.373-69.373 69.373-69.372z" />
<glyph unicode="&#xe08e;" d="M464 416h-416c-26.4 0-48-21.6-48-48v-288c0-26.4 21.6-48 48-48h416c26.4 0 48 21.6 48 48v288c0 26.4-21.6 48-48 48zM48 384h416c8.673 0 16-7.327 16-16v-48h-448v48c0 8.673 7.327 16 16 16zM464 64h-416c-8.673 0-16 7.327-16 16v144h448v-144c0-8.673-7.327-16-16-16zM64 160h32v-64h-32zM128 160h32v-64h-32zM192 160h32v-64h-32z" />
<glyph unicode="&#xe090;" d="M192 448h-160c-17.6 0-32-14.4-32-32v-160c0-17.6 14.398-32 32-32h160c17.6 0 32 14.4 32 32v160c0 17.6-14.4 32-32 32zM192 320h-160v32h160v-32zM448 448h-160c-17.602 0-32-14.4-32-32v-416c0-17.6 14.398-32 32-32h160c17.6 0 32 14.4 32 32v416c0 17.6-14.4 32-32 32zM448 160h-160v32h160v-32zM448 256h-160v32h160v-32zM192 192h-160c-17.6 0-32-14.4-32-32v-160c0-17.6 14.398-32 32-32h160c17.6 0 32 14.4 32 32v160c0 17.6-14.4 32-32 32zM192 64h-64v-64h-32v64h-64v32h64v64h32v-64h64v-32z" />
<glyph unicode="&#xe092;" d="M457.153 376.352c53.267-30.284 54.847-62.709 54.849-85.349v-3.397c0-5.182-4.469-9.418-9.928-9.418h-120.146c-5.459 0-9.928 4.236-9.928 9.418v11.453c0 28.605-27.355 33.175-42.449 35.605-15.096 2.426-52.617 4.777-73.48 4.777-0.026 0-0.046 0-0.066 0-0.029 0-0.049 0-0.077 0-20.862 0-58.387-2.35-73.48-4.777-15.093-2.427-42.449-6.998-42.449-35.605v-11.453c0-5.182-4.469-9.418-9.926-9.418h-120.146c-5.457 0-9.926 4.236-9.926 9.418v3.397c0 22.64 1.58 55.065 54.847 85.349 63.35 36.010 153.929 39.648 201.080 39.648 0.028-0.025 0.048-0.055 0.077-0.078 0.018 0.022 0.039 0.054 0.066 0.078 47.152 0 137.732-3.634 201.082-39.648zM256.001 288c-28.374 0-87.443-2.126-117.456-38.519-30.022-36.383-105.090-217.481-38.147-217.481 66.956 0 125.458 0 155.606 0 30.137 0 88.648 0 155.595 0 66.945 0-8.125 181.098-38.137 217.481-30.018 36.393-89.1 38.519-117.461 38.519zM256 96c-35.346 0-64 28.653-64 64s28.654 64 64 64c35.347 0 64-28.653 64-64s-28.653-64-64-64z" />
<glyph unicode="&#xe095;" d="M352 160c32 32 128-64 128-96s-96-96-96-96c-64 0-193.75 65.75-256 128s-128 192-128 256c0 0 64 96 96 96s128-96 96-128-64-32-64-64 32-64 64-96 64-64 96-64 32 32 64 64zM368 480c-79.528 0-144-64.471-144-144s64.472-144 144-144 144 64.471 144 144-64.472 144-144 144zM384 320v-63.876h-32v63.876h-63.876v32h63.876v63.876h32v-63.876h63.876v-32h-63.876z" />
<glyph unicode="&#xe096;" d="M352 160c32 32 128-64 128-96s-96-96-96-96c-64 0-193.75 65.75-256 128s-128 192-128 256c0 0 64 96 96 96s128-96 96-128-64-32-64-64 32-64 64-96 64-64 96-64 32 32 64 64zM368 480c-79.528 0-144-64.471-144-144s64.472-144 144-144 144 64.471 144 144-64.472 144-144 144zM447.876 320h-159.752v32h159.752v-32z" />
<glyph unicode="&#xe09f;" d="M480 352c17.673 0 32 14.327 32 32v64h-64v32h-416c-17.6 0-32-14.399-32-32v-448c0-17.6 14.398-32 32-32h416v128h32c17.673 0 32 14.327 32 32v64h-64v32h32c17.673 0 32 14.327 32 32v64h-64v32h32zM288 351.835c35.255 0 63.835-28.58 63.835-63.835s-28.58-63.835-63.835-63.835c-35.255 0-63.835 28.58-63.835 63.835s28.58 63.835 63.835 63.835zM128 0h-32v448h32v-448zM384 96h-192v32c0 35.347 28.654 64 64 64v0h64c35.348 0 64-28.653 64-64v-32z" />
<glyph unicode="&#xe0a1;" d="M480 416h-448c-17.6 0-32-14.4-32-32v-320c0-17.6 14.4-32 32-32h448c17.6 0 32 14.4 32 32v320c0 17.6-14.4 32-32 32zM448 352v-23l-192-113.143-192 113.143v23h384zM64 96v177.286l192-113.143 192 113.143v-177.286h-384z" />
<glyph unicode="&#xe0a2;" d="M607.984 352h-415.969l207.985-166.389zM400 134.389l-26.209 20.965-171.291-91.354h394.999l-171.29 91.354zM460.21 182.557l179.79-95.89v239.721zM160 326.388v-239.721l179.791 95.89zM128 288l-128 8v16l128 8zM128 192l-128 8v16l128 8zM128 96l-128 8v16l128 8z" horiz-adv-x="640" />
<glyph unicode="&#xe0a6;" d="M256 480c-88.366 0-160-71.634-160-160 0-160 160-288 160-288s160 128 160 288c0 88.366-71.635 160-160 160zM256 224c-53.020 0-96 42.98-96 96s42.98 96 96 96c53.020 0 96-42.98 96-96s-42.98-96-96-96zM393.128 131.185c-7.091-11.137-14.438-21.69-21.828-31.613 1.173-0.551 2.333-1.108 3.471-1.677 24.335-12.169 35.229-25.791 35.229-33.895s-10.894-21.726-35.229-33.895c-30.64-15.319-73.93-24.105-118.771-24.105s-88.131 8.786-118.771 24.105c-24.336 12.169-35.229 25.791-35.229 33.895s10.893 21.726 35.229 33.895c1.138 0.568 2.298 1.126 3.47 1.677-7.39 9.923-14.737 20.477-21.827 31.613-33.937-17.316-54.872-41.026-54.872-67.185 0-53.020 85.961-96 192-96 106.039 0 192 42.98 192 96 0 26.159-20.935 49.869-54.872 67.185z" />
<glyph unicode="&#xe0ab;" d="M384 400l-256 64-128-80v-416l128 80 256-64 128 80v416l-128-80zM352 24.984l-192 48v350.031l192-48v-350.031z" />
<glyph unicode="&#xe0b6;" d="M256 416c-123.712 0-224-100.288-224-224s100.288-224 224-224 224 100.288 224 224-100.288 224-224 224zM256 12c-99.412 0-180 80.589-180 180 0 99.412 80.588 180 180 180 99.411 0 180-80.588 180-180 0-99.411-80.589-180-180-180zM467.392 336.413c8.021 14.026 12.608 30.271 12.608 47.587 0 53.020-42.98 96-96 96-30.909 0-58.401-14.611-75.96-37.298 65.942-13.618 122.603-52.599 159.352-106.289zM203.96 442.702c-17.558 22.687-45.051 37.298-75.96 37.298-53.020 0-96-42.98-96-96 0-17.316 4.587-33.561 12.608-47.587 36.75 53.69 93.411 92.671 159.352 106.289zM224 320h32v-160h-32v160zM256 192h96v-32h-96v32z" />
<glyph unicode="&#xe0bc;" d="M448 416h-48v-16c0-17.645-14.355-32-32-32s-32 14.355-32 32v16h-160v-16c0-17.645-14.355-32-32-32s-32 14.355-32 32v16h-48c-17.6 0-32-14.4-32-32v-352c0-17.6 14.4-32 32-32h384c17.6 0 32 14.4 32 32v352c0 17.6-14.4 32-32 32zM448 32.058c-0.017-0.020-0.038-0.041-0.058-0.058h-383.885c-0.020 0.017-0.041 0.038-0.057 0.058v287.942h384v-287.942zM144 384c8.836 0 16 7.164 16 16v64c0 8.836-7.164 16-16 16s-16-7.164-16-16v-64c0-8.836 7.164-16 16-16zM368 384c8.836 0 16 7.164 16 16v64c0 8.836-7.164 16-16 16s-16-7.164-16-16v-64c0-8.836 7.164-16 16-16zM288 288h-160v-32h128v-64h-128v-32h128v-64h-128v-32h160zM352 64h32v224h-64v-32h32zM436-12h-360c-17.6 0-32 10.4-32 28v-16c0-17.6 14.4-32 32-32h360c17.6 0 32 14.4 32 32v16c0-17.6-14.4-28-32-28z" />
<glyph unicode="&#xe0bd;" d="M510.225 95.951l-12.449 224.098c-0.977 17.573-16.176 31.951-33.776 31.951h-80v128h-256v-128h-80c-17.601 0-32.799-14.378-33.775-31.951l-12.45-224.098c-0.976-17.573 12.625-31.951 30.225-31.951h70.4l-38.4-96h384l-38.4 96h70.4c17.6 0 31.2 14.378 30.225 31.951zM160 448h192v-96h-192v96zM111.265 0l38.4 96h212.67l38.4-96h-289.47zM448 256h-32v64h32v-64z" />
<glyph unicode="&#xe0bf;" d="M320 440.571v-152.571h-128v152.571c-47.799-11.117-96-36.595-96-88.571v-212c0-77.318 71.634-140 160-140 88.363 0 160 62.682 160 140v212c0 51.976-48.201 77.454-96 88.571zM288 446.067c-11.723 1.354-22.679 1.933-32 1.933-9.32 0-20.276-0.579-32-1.933v-126.067h64v126.067z" />
<glyph unicode="&#xe0c1;" d="M544 416h-512c-17.6 0-32-14.4-32-32v-320c0-17.6 14.4-32 32-32h512c17.6 0 32 14.4 32 32v320c0 17.6-14.4 32-32 32zM320 352h64v-64h-64v64zM416 256v-64h-64v64h64zM224 352h64v-64h-64v64zM320 256v-64h-64v64h64zM128 352h64v-64h-64v64zM224 256v-64h-64v64h64zM64 352h32v-64h-32v64zM64 256h64v-64h-64v64zM96 96h-32v64h32v-64zM384 96h-256v64h256v-64zM512 96h-96v64h96v-64zM512 192h-64v64h64v-64zM512 288h-96v64h96v-64z" horiz-adv-x="576" />
<glyph unicode="&#xe0c3;" d="M512 64v384h-512v-384h224v-32h-96v-32h256v32h-96v32h224zM64 384h384v-256h-384v256z" />
<glyph unicode="&#xe0c6;" d="M384 480h-288c-17.6 0-32-14.399-32-32v-448c0-17.6 14.399-32 32-32h288c17.6 0 32 14.4 32 32v448c0 17.601-14.4 32-32 32zM240-8.891c-13.746 0-24.891 11.145-24.891 24.891s11.145 24.891 24.891 24.891 24.891-11.145 24.891-24.891-11.145-24.891-24.891-24.891zM384 64h-288v352h288v-352z" />
<glyph unicode="&#xe0d0;" d="M256 192l128 128h-96v128h-64v-128h-96zM372.363 244.364l-35.87-35.871 130.040-48.493-210.533-78.509-210.533 78.509 130.040 48.493-35.871 35.871-139.636-52.364v-128l256-96 256 96v128z" />
<glyph unicode="&#xe0d1;" d="M224 192h64v128h96l-128 128-128-128h96zM320 264v-49.356l146.533-54.644-210.533-78.509-210.533 78.509 146.533 54.644v49.356l-192-72v-128l256-96 256 96v128z" />
<glyph unicode="&#xe0dd;" d="M380.931-32c56.863 103.016 66.444 260.153-156.931 254.912v-126.912l-192 192 192 192v-124.186c267.481 6.971 297.285-236.107 156.931-387.814z" />
<glyph unicode="&#xe0de;" d="M288 355.814v124.186l192-192-192-192v126.912c-223.375 5.241-213.794-151.896-156.93-254.912-140.356 151.707-110.55 394.785 156.93 387.814z" />
<glyph unicode="&#xe0e2;" d="M256 448c141.385 0 256-93.125 256-208 0-114.876-114.615-208-256-208-13.578 0-26.905 0.867-39.912 2.522-54.989-54.989-120.625-64.85-184.088-66.298v13.458c34.268 16.789 64 47.37 64 82.318 0 4.877-0.379 9.665-1.082 14.348-57.898 38.132-94.918 96.377-94.918 161.652 0 114.875 114.615 208 256 208z" />
<glyph unicode="&#xe0e3;" d="M544 29.417c0-22.75 13.014-42.454 32-52.092v-7.969c-5.313-0.727-10.736-1.112-16.25-1.112-34.004 0-64.674 14.264-86.361 37.132-13.111-3.491-27.001-5.376-41.389-5.376-79.529 0-144 57.308-144 128 0 70.692 64.471 128 144 128 79.529 0 144-57.308 144-128 0-27.674-9.882-53.296-26.678-74.233-3.412-7.412-5.322-15.656-5.322-24.35zM256 480c139.229 0 252.496-90.307 255.918-202.76-24.591 10.96-51.793 16.76-79.918 16.76-47.78 0-92.908-16.723-127.069-47.089-35.423-31.486-54.931-73.717-54.931-118.911 0-22.336 4.772-43.944 13.868-63.894-2.614-0.063-5.234-0.106-7.868-0.106-13.578 0-26.905 0.867-39.912 2.522-54.989-54.989-120.625-64.85-184.088-66.298v13.458c34.268 16.789 64 47.37 64 82.318 0 4.877-0.379 9.665-1.082 14.348-57.898 38.132-94.918 96.377-94.918 161.652 0 114.875 114.615 208 256 208z" horiz-adv-x="576" />
<glyph unicode="&#xe0e5;" d="M256 384c-27.466 0-53.994-4.331-78.847-12.871-23.356-8.027-44.153-19.372-61.814-33.722-33.107-26.899-51.339-61.492-51.339-97.407 0-20.149 5.594-39.689 16.626-58.076 11.376-18.96 28.491-36.293 49.494-50.126 15.178-9.996 25.39-25.974 28.088-43.947 0.9-5.992 1.464-12.044 1.685-18.062 3.735 3.097 7.375 6.423 10.94 9.988 12.077 12.076 28.39 18.745 45.251 18.745 2.684 0 5.381-0.168 8.078-0.512 10.487-1.333 21.199-2.010 31.838-2.010 27.467 0 53.994 4.33 78.847 12.871 23.356 8.027 44.153 19.372 61.814 33.722 33.107 26.898 51.339 61.492 51.339 97.407 0 35.915-18.232 70.508-51.339 97.407-17.661 14.349-38.458 25.695-61.814 33.722-24.853 8.54-51.38 12.871-78.847 12.871zM256 448v0c141.385 0 256-93.125 256-208 0-114.876-114.615-208-256-208-13.578 0-26.905 0.867-39.912 2.522-54.989-54.989-120.625-64.85-184.088-66.298v13.458c34.268 16.789 64 47.37 64 82.318 0 4.877-0.379 9.665-1.082 14.348-57.898 38.132-94.918 96.377-94.918 161.652 0 114.875 114.615 208 256 208z" />
<glyph unicode="&#xe0e6;" d="M544 29.417c0-22.75 13.014-42.454 32-52.092v-7.969c-5.313-0.727-10.736-1.112-16.25-1.112-34.004 0-64.674 14.264-86.361 37.132-13.111-3.491-27.001-5.376-41.389-5.376-79.529 0-144 57.308-144 128 0 70.692 64.471 128 144 128 79.529 0 144-57.308 144-128 0-27.674-9.882-53.296-26.678-74.233-3.412-7.412-5.322-15.656-5.322-24.35zM115.339 369.407c-33.107-26.899-51.339-61.492-51.339-97.407 0-20.149 5.594-39.689 16.626-58.075 11.376-18.96 28.491-36.293 49.494-50.126 15.178-9.996 25.39-25.974 28.088-43.947 0.9-5.992 1.464-12.044 1.685-18.062 3.735 3.097 7.375 6.423 10.94 9.988 12.077 12.076 28.39 18.745 45.251 18.745 2.684 0 5.381-0.168 8.078-0.512 10.474-1.331 21.172-2.008 31.797-2.010v-64c-13.564 0.001-26.877 0.869-39.871 2.521-54.989-54.989-120.625-64.85-184.088-66.298v13.458c34.268 16.789 64 47.37 64 82.318 0 4.877-0.379 9.665-1.082 14.348-57.898 38.132-94.918 96.377-94.918 161.652 0 114.875 114.615 208 256 208 139.229 0 252.496-90.307 255.918-202.76-20.548 9.158-42.92 14.711-66.131 16.289-5.765 28.034-22.701 54.408-49.126 75.878-17.661 14.349-38.458 25.695-61.814 33.722-24.853 8.54-51.38 12.871-78.847 12.871-27.466 0-53.994-4.331-78.847-12.871-23.356-8.027-44.153-19.372-61.814-33.722z" horiz-adv-x="576" />
<glyph unicode="&#xe0e8;" d="M256 480c-141.385 0-256-93.125-256-208 0-65.275 37.020-123.52 94.918-161.652 0.703-4.683 1.082-9.471 1.082-14.348 0-34.948-29.732-65.529-64-82.318v-13.458c63.463 1.448 129.099 11.31 184.088 66.299 13.007-1.656 26.334-2.523 39.912-2.523 141.385 0 256 93.124 256 208 0 114.875-114.615 208-256 208zM288 160h-64v64h64v-64zM288 288h-64v128h64v-128z" />
<glyph unicode="&#xe0ea;" d="M464 448h-416c-26.4 0-48-21.6-48-48v-256c0-26.4 21.6-48 48-48h80v-128l153.6 128h182.4c26.4 0 48 21.6 48 48v256c0 26.4-21.6 48-48 48zM192 224h-64v64h64v-64zM288 224h-64v64h64v-64zM384 224h-64v64h64v-64z" />
<glyph unicode="&#xe0ec;" d="M464 448h-416c-26.4 0-48-21.6-48-48v-256c0-26.4 21.6-48 48-48h80v-128l153.6 128h182.4c26.4 0 48 21.6 48 48v256c0 26.4-21.6 48-48 48zM448 160h-189.571l-98.429-87.357v87.357h-96v224h384v-224z" />
<glyph unicode="&#xe0ed;" d="M128 288h64v-64h-64zM224 288h64v-64h-64zM320 288h64v-64h-64zM464 448h-416c-26.4 0-48-21.6-48-48v-256c0-26.4 21.6-48 48-48h80v-128l153.6 128h182.4c26.4 0 48 21.6 48 48v256c0 26.4-21.6 48-48 48zM448 160h-189.571l-98.429-87.357v87.357h-96v224h384v-224z" />
<glyph unicode="&#xe0ef;" d="M400 480h-352c-26.4 0-48-21.6-48-48v-160c0-26.4 21.6-48 48-48h16v-128l153.6 128h182.4c26.4 0 48 21.6 48 48v160c0 26.4-21.6 48-48 48zM384 288h-189.572l-98.428-87.357v87.357h-32v128h320v-128zM528 384c26.4 0 48-21.6 48-48v-192c0-26.4-21.6-48-48-48h-80v-128l-153.6 128h-102.4v64h125.57l98.43-87.357v87.357h96v160h-32v64h48z" horiz-adv-x="576" />
<glyph unicode="&#xe0f0;" d="M400 480c26.4 0 48-21.6 48-48v-160c0-26.4-21.6-48-48-48h-182.4l-153.6-128v128h-16c-26.4 0-48 21.6-48 48v160c0 26.4 21.6 48 48 48h352zM528 384c26.4 0 48-21.6 48-48v-192c0-26.4-21.6-48-48-48h-80v-128l-153.6 128h-102.4v64h125.57l98.43-87.357v87.357h96v160h-32v64h48z" horiz-adv-x="576" />
<glyph unicode="&#xe10b;" d="M367.497 77.313c-9.476 1.494-9.692 27.327-9.692 27.327s27.844 27.328 33.912 64.076c16.326 0 26.407 39.069 10.082 52.814 0.681 14.47 20.984 113.588-81.799 113.588-102.782 0-82.479-99.118-81.799-113.588-16.327-13.745-6.244-52.814 10.081-52.814 6.067-36.748 33.913-64.076 33.913-64.076s-0.216-25.833-9.692-27.327c-30.524-4.816-144.503-54.658-144.503-109.313h384c0 54.655-113.979 104.497-144.503 109.313zM172.027 68.595c22.047 13.575 48.813 26.154 70.769 33.712-7.876 11.216-16.647 26.468-22.165 44.531-7.703 6.283-13.972 15.266-17.999 26.301-4.033 11.052-5.561 23.426-4.304 34.842 0.902 8.196 3.239 15.833 6.825 22.544-2.175 23.293-3.707 69.017 26.224 102.366 11.607 12.933 26.278 22.23 43.85 27.843-3.137 32.38-19.58 70.385-83.227 70.385-102.782 0-82.479-99.118-81.799-113.588-16.327-13.745-6.244-52.814 10.081-52.814 6.067-36.748 33.913-64.076 33.913-64.076s-0.216-25.833-9.692-27.327c-30.524-4.817-144.503-54.659-144.503-109.314h164.798c2.355 1.537 4.753 3.070 7.229 4.595z" />
<glyph unicode="&#xe10d;" d="M448 192v64h-64v-64h-64v-64h64v-64h64v64h64v64zM384 57.257c-41.683 38.573-112.118 67.481-136.587 71.375-11.056 1.759-11.308 32.157-11.308 32.157s32.484 32.158 39.564 75.401c19.045 0 30.809 45.973 11.761 62.148 0.797 17.027 24.481 133.662-95.43 133.662s-96.225-116.635-95.432-133.662c-19.047-16.175-7.285-62.148 11.761-62.148 7.079-43.243 39.564-75.401 39.564-75.401s-0.252-30.398-11.307-32.157c-24.468-3.894-94.904-32.802-136.586-71.375v-57.257h384v57.257z" />
<glyph unicode="&#xe10f;" d="M320 192h192v-64h-192zM384 57.257c-41.683 38.573-112.118 67.481-136.587 71.375-11.056 1.759-11.308 32.157-11.308 32.157s32.484 32.158 39.564 75.401c19.045 0 30.809 45.973 11.761 62.148 0.797 17.027 24.481 133.662-95.43 133.662s-96.225-116.635-95.432-133.662c-19.047-16.175-7.285-62.148 11.761-62.148 7.079-43.243 39.564-75.401 39.564-75.401s-0.252-30.398-11.307-32.157c-24.468-3.894-94.904-32.802-136.586-71.375v-57.257h384v57.257z" />
<glyph unicode="&#xe118;" d="M128 320c0 70.692 57.308 128 128 128s128-57.308 128-128c0-70.692-57.308-128-128-128-70.692 0-128 57.308-128 128zM384 160h-256c-70.692 0-128-57.309-128-128v-32h512v32c0 70.691-57.308 128-128 128z" />
<glyph unicode="&#xe11a;" d="M448 384h-384c-35.2 0-64-28.8-64-64v-224c0-35.2 28.8-64 64-64h384c35.2 0 64 28.8 64 64v224c0 35.2-28.8 64-64 64zM64 96c0 70.692 35.817 128 80 128-26.51 0-48 21.49-48 48s21.49 48 48 48 48-21.49 48-48-21.49-48-48-48 80-57.308 80-128h-160zM448 96h-160v32h160v-32zM448 192h-160v32h160v-32zM448 288h-160v32h160v-32z" />
<glyph unicode="&#xe11c;" d="M112.5 256c61.856 0 112-50.145 112-112 0-61.856-50.144-112-112-112-61.856 0-112 50.144-112 112l-0.5 16c0 123.712 100.288 224 224 224v-64c-42.737 0-82.917-16.643-113.137-46.863-5.817-5.818-11.126-12.008-15.915-18.51 5.719 0.9 11.58 1.373 17.552 1.373zM400.5 256c61.855 0 112-50.145 112-112 0-61.856-50.145-112-112-112-61.855 0-112 50.144-112 112l-0.5 16c0 123.712 100.288 224 224 224v-64c-42.737 0-82.917-16.643-113.137-46.863-5.818-5.818-11.127-12.008-15.916-18.51 5.72 0.9 11.58 1.373 17.553 1.373z" />
<glyph unicode="&#xe11d;" d="M400 160c-61.856 0-112 50.145-112 112 0 61.856 50.144 112 112 112 61.856 0 112-50.144 112-112l0.5-16c0-123.712-100.288-224-224-224v64c42.737 0 82.917 16.643 113.137 46.863 5.817 5.818 11.126 12.008 15.915 18.51-5.719-0.9-11.58-1.373-17.552-1.373zM112 160c-61.855 0-112 50.145-112 112 0 61.856 50.145 112 112 112 61.855 0 112-50.144 112-112l0.5-16c0-123.712-100.288-224-224-224v64c42.737 0 82.917 16.643 113.137 46.863 5.818 5.818 11.127 12.008 15.916 18.51-5.72-0.9-11.58-1.373-17.553-1.373z" />
<glyph unicode="&#xe120;" d="M364.496 224c68.877 43.667 115.504 127.604 115.504 224 0 10.838-0.596 21.517-1.739 32h-444.521c-1.145-10.484-1.74-21.163-1.74-32 0-96.396 46.627-180.333 115.503-224-68.876-43.667-115.503-127.604-115.503-224 0-10.838 0.595-21.517 1.739-32h444.521c1.144 10.483 1.739 21.162 1.739 32 0.001 96.396-46.626 180.333-115.503 224zM80 0c0 93.456 40.081 172.707 112 198.854v50.293c-71.919 26.145-112 105.396-112 198.853v0h352c0-93.457-40.081-172.708-112-198.853v-50.293c71.919-26.147 112-105.398 112-198.854h-352zM309.813 145.203c-35.827 20.322-37.804 46.684-37.813 62.683v32.114c0 15.997 1.902 42.457 37.872 62.832 19.252 11.182 35.904 28.174 48.524 49.168h-204.791c12.633-21.016 29.306-38.021 48.583-49.203 35.827-20.322 37.803-46.683 37.813-62.683v-32.114c0-15.996-1.902-42.457-37.872-62.832-36.311-21.090-63.369-62.842-71.545-113.168h250.835c-8.182 50.354-35.265 92.124-71.606 113.203z" />
<glyph unicode="&#xe123;" d="M192 416c0 35.346 28.654 64 64 64s64-28.654 64-64c0-35.346-28.654-64-64-64-35.346 0-64 28.654-64 64zM327.765 359.765c0 35.346 28.654 64 64 64s64-28.654 64-64c0-35.346-28.654-64-64-64-35.346 0-64 28.654-64 64zM416 224c0 17.673 14.327 32 32 32s32-14.327 32-32c0-17.673-14.327-32-32-32-17.673 0-32 14.327-32 32zM359.765 88.235c0 17.673 14.327 32 32 32s32-14.327 32-32c0-17.673-14.327-32-32-32-17.673 0-32 14.327-32 32zM224.001 32c0 0 0 0 0 0 0 17.673 14.327 32 32 32 17.673 0 32-14.327 32-32 0 0 0 0 0 0 0 0 0 0 0 0 0-17.673-14.327-32-32-32-17.673 0-32 14.327-32 32s0 0 0 0zM88.236 88.235c0 0 0 0 0 0 0 17.673 14.327 32 32 32 17.673 0 32-14.327 32-32 0 0 0 0 0 0 0 0 0 0 0 0 0-17.673-14.327-32-32-32-17.673 0-32 14.327-32 32s0 0 0 0zM72.236 359.765c0 0 0 0 0 0 0 26.51 21.49 48 48 48 26.509 0 48-21.49 48-48 0 0 0 0 0 0 0 0 0 0 0 0 0-26.51-21.49-48-48-48-26.51 0-48 21.49-48 48s0 0 0 0zM28 224c0 19.882 16.117 36 36 36s36-16.118 36-36c0-19.882-16.118-36-36-36-19.883 0-36 16.118-36 36z" />
<glyph unicode="&#xe12a;" d="M512 288h-192l71.765 71.765c-36.265 36.263-84.48 56.235-135.765 56.235-51.285 0-99.5-19.972-135.765-56.235-36.263-36.265-56.235-84.48-56.235-135.765 0-51.285 19.972-99.5 56.235-135.765 36.265-36.263 84.48-56.235 135.765-56.235 51.285 0 99.5 19.972 135.764 56.236 3.028 3.027 5.93 6.146 8.728 9.334l48.16-42.141c-46.923-53.583-115.832-87.429-192.652-87.429-141.385 0-256 114.615-256 256 0 141.385 114.615 256 256 256 70.693 0 134.684-28.663 181.008-74.992l74.992 74.992v-192z" />
<glyph unicode="&#xe12e;" d="M192 384h-32v-64h-64v-32h64v-64h32v64h64v32h-64zM318.771 201.076c20.903 28.945 33.229 64.492 33.229 102.924 0 97.202-78.798 176-176 176s-176-78.798-176-176 78.798-176 176-176c38.432 0 73.979 12.326 102.924 33.229l169.076-193.229 64 64-193.229 169.076zM176 176c-70.692 0-128 57.308-128 128s57.308 128 128 128 128-57.308 128-128-57.307-128-128-128z" />
<glyph unicode="&#xe12f;" d="M96 320h160v-32h-160zM318.771 201.076c20.903 28.945 33.229 64.492 33.229 102.924 0 97.202-78.798 176-176 176s-176-78.798-176-176 78.798-176 176-176c38.432 0 73.979 12.326 102.924 33.229l169.076-193.229 64 64-193.229 169.076zM176 176c-70.692 0-128 57.308-128 128s57.308 128 128 128 128-57.308 128-128-57.307-128-128-128z" />
<glyph unicode="&#xe130;" d="M496.131 44.302l-121.276 103.147c-12.537 11.283-25.945 16.463-36.776 15.963 28.628 33.534 45.921 77.039 45.921 124.588 0 106.039-85.961 192-192 192-106.038 0-192-85.961-192-192 0-106.039 85.961-192 192-192 47.549 0 91.054 17.293 124.588 45.922-0.5-10.831 4.68-24.239 15.963-36.776l103.147-121.276c17.661-19.623 46.511-21.277 64.11-3.678s15.946 46.449-3.677 64.11zM192 160c-70.692 0-128 57.308-128 128s57.308 128 128 128 128-57.308 128-128-57.307-128-128-128z" />
<glyph unicode="&#xe133;" d="M512 480v-192l-69.13 69.13-106-106-53.74 53.74 106 106-69.13 69.13zM122.87 410.87l106-106-53.74-53.74-106 106-69.13-69.13v192h192zM442.87 90.87l69.13 69.13v-192h-192l69.13 69.13-106 106 53.74 53.74zM228.87 143.13l-106-106 69.13-69.13h-192v192l69.13-69.13 106 106z" />
<glyph unicode="&#xe138;" d="M501.066 322.879l-50.553 50.552c-12.396 12.397-32.685 32.684-45.081 45.082l-50.553 50.552c-12.396 12.397-34.477 14.583-49.065 4.858l-138.219-92.146c-14.588-9.726-20.109-30.514-12.268-46.195l35.243-70.487c1.077-2.153 2.323-4.448 3.695-6.83l-178.265-178.265-16-112h96v32h64v64h64v64h64v35.593c3.198-1.906 6.267-3.608 9.096-5.022l70.485-35.244c15.683-7.841 36.47-2.319 46.195 12.269l92.147 138.22c9.727 14.586 7.539 36.665-4.857 49.063zM75.314 52.687l-22.627 22.627 155.786 155.785 22.627-22.627-155.786-155.785zM458.51 268.118l-22.628-22.628c-6.223-6.222-16.404-6.222-22.627 0l-135.765 135.765c-6.223 6.222-6.223 16.405 0 22.627l22.628 22.628c6.223 6.222 16.404 6.222 22.627 0l135.765-135.765c6.223-6.222 6.223-16.405 0-22.627z" />
<glyph unicode="&#xe13c;" d="M296 256h-8v96c0 52.935-43.065 96-96 96h-64c-52.935 0-96-43.065-96-96v-96h-8c-13.2 0-24-10.8-24-24v-240c0-13.2 10.8-24 24-24h272c13.2 0 24 10.8 24 24v240c0 13.2-10.8 24-24 24zM192 32h-64l13.92 69.6c-8.404 5.766-13.92 15.437-13.92 26.4 0 17.673 14.327 32 32 32 17.673 0 32-14.327 32-32 0-10.963-5.516-20.634-13.92-26.4l13.92-69.6zM224 256h-128v96c0 17.645 14.355 32 32 32h64c17.645 0 32-14.355 32-32v-96z" />
<glyph unicode="&#xe13d;" d="M384 448h-64c-52.935 0-96-43.065-96-96v-96h-200c-13.2 0-24-10.8-24-24v-240c0-13.2 10.8-24 24-24h272c13.2 0 24 10.8 24 24v240c0 13.2-10.8 24-24 24h-8v96c0 17.645 14.355 32 32 32h64c17.645 0 32-14.355 32-32v-96h64v96c0 52.935-43.065 96-96 96zM192 32h-64l13.92 69.6c-8.404 5.766-13.92 15.437-13.92 26.4 0 17.673 14.327 32 32 32 17.673 0 32-14.327 32-32 0-10.963-5.516-20.634-13.92-26.4l13.92-69.6z" />
<glyph unicode="&#xe13f;" d="M480.895 114.139l-186.393 152.113c-6.183 5.045-12.183 9.551-17.906 13.495 7.341 17.282 11.404 36.293 11.404 56.253 0 79.529-64.471 144-144 144-14.547 0-28.586-2.166-41.823-6.177l89.823-89.823v-96h-96l-89.823 89.823c-4.011-13.237-6.177-27.276-6.177-41.823 0-79.529 64.471-144 144-144 19.96 0 38.97 4.063 56.252 11.404 3.944-5.724 8.449-11.724 13.494-17.906l152.114-186.394c31.645-38.776 86.336-41.702 121.536-6.502s32.275 89.892-6.501 121.537zM432 0l-48 48 48 48 48-48-48-48z" />
<glyph unicode="&#xe140;" d="M224 416v8c0 13.2-10.8 24-24 24h-80c-13.2 0-24-10.8-24-24v-8h-96v-64h96v-8c0-13.2 10.8-24 24-24h80c13.2 0 24 10.8 24 24v8h288v64h-288zM128 352v64h64v-64h-64zM416 264c0 13.2-10.8 24-24 24h-80c-13.2 0-24-10.8-24-24v-8h-288v-64h288v-8c0-13.2 10.8-24 24-24h80c13.2 0 24 10.8 24 24v8h96v64h-96v8zM320 192v64h64v-64h-64zM224 104c0 13.2-10.8 24-24 24h-80c-13.2 0-24-10.8-24-24v-8h-96v-64h96v-8c0-13.2 10.8-24 24-24h80c13.2 0 24 10.8 24 24v8h288v64h-288v8zM128 32v64h64v-64h-64z" />
<glyph unicode="&#xe144;" d="M466.895 174.875c-26.863 46.527-10.708 106.152 36.076 133.244l-50.313 87.146c-14.375-8.427-31.088-13.259-48.923-13.259-53.768 0-97.354 43.873-97.354 97.995h-100.629c0.133-16.705-4.037-33.641-12.979-49.126-26.862-46.528-86.578-62.351-133.431-35.379l-50.312-87.146c14.485-8.236 27.025-20.294 35.943-35.739 26.819-46.454 10.756-105.96-35.854-133.112l50.313-87.146c14.325 8.348 30.958 13.127 48.7 13.127 53.598 0 97.072-43.596 97.35-97.479h100.627c-0.043 16.537 4.136 33.285 12.983 48.609 26.818 46.453 86.388 62.297 133.207 35.506l50.313 87.145c-14.39 8.233-26.846 20.249-35.717 35.614zM256 120.334c-57.254 0-103.668 46.412-103.668 103.667 0 57.254 46.413 103.667 103.668 103.667 57.254 0 103.666-46.413 103.666-103.667-0.001-57.255-46.412-103.667-103.666-103.667z" />
<glyph unicode="&#xe14b;" d="M246.278 127.723l73.445-73.445-58.338-74.912c-10.691-13.981-29.621-15.237-42.066-2.793l-50.745 50.746c-12.445 12.444-11.188 31.374 2.792 42.065l74.912 58.339zM636.756 348.754l-76.756-76.755-96 96 76.756 76.755c-9.244 2.122-18.869 3.245-28.756 3.245-70.692 0-128-57.308-128-128 0-25.498 7.458-49.253 20.309-69.208l-71.454-55.646-108.855 108.854 144 144h-160l-71.029-71.029-7.030 7.029h-33.941v-33.941l7.029-7.029-103.029-103.030 80-80 96 96 288-287.998 48 47.998-124.854 124.855 55.646 71.454c19.954-12.851 43.71-20.309 69.208-20.309 70.692 0 128 57.308 128 128 0 9.887-1.123 19.512-3.244 28.755z" horiz-adv-x="640" />
<glyph unicode="&#xe14c;" d="M128 384l-64 64h-32v-32l64-64zM160 480h32v-64h-32zM288 320h64v-32h-64zM320 416v32h-32l-64-64 32-32zM0 320h64v-32h-64zM160 192h32v-64h-32zM32 192v-32h32l64 64-32 32zM505 39l-318.059 318.059c-9.334 9.334-24.607 9.334-33.941 0l-30.059-30.059c-9.334-9.334-9.334-24.607 0-33.941l318.059-318.059c9.334-9.334 24.607-9.334 33.941 0l30.059 30.059c9.334 9.334 9.334 24.607 0 33.941zM240 208l-96 96 32 32 96-96-32-32z" />
<glyph unicode="&#xe14d;" d="M258.181 254.091l94.386 29.34-96.567 68.292v128.277l-103.468-74.534-120.532 42.534 42.533-120.533-74.533-103.467h128l68.567-96.568 29.341 94.387 222.092-253.819 64 64-253.819 222.091zM202.327 277.672l-19.579-62.986-38.084 53.010h-65.952l39.447 52.861-21.18 62.464 62.464-21.182 52.862 39.447v-65.952l53.008-38.084-62.986-19.578z" />
<glyph unicode="&#xe150;" d="M480 320l32 64v64l-48-96h-56.89c-4.274 4.689-10.553 9.171-19.73 14.311l-70.76 35.377c-15.74 7.873-43.020 14.312-60.62 14.312-17.602 0-44.881-6.439-60.623-14.313l-70.758-35.377c-9.181-5.14-15.457-9.623-19.731-14.311h-56.888l-48 96.001v-64l32-64h64v-64l-96-32v-32l96 32v-96h-32l-64-160h32l51.199 128h16.712c4.447-12.48 12.241-24.669 21.074-31.734l110.022-88.021c6.875-5.498 15.933-8.245 24.993-8.245 9.057 0 18.113 2.747 24.985 8.245l110.022 88.021c8.835 7.065 16.628 19.254 21.074 31.734h16.719l51.2-128h32l-64 160h-32v96l96-32v32l-96 32v64h64zM272 32h-32v320h32v-320zM320 417.779v30.221c0 17.6-14.4 32-32 32h-64c-17.602 0-32-14.4-32-32v-30.221c18.129 8.105 45.284 14.221 64 14.221 18.713 0 45.865-6.116 64-14.221z" />
<glyph unicode="&#xe158;" d="M224 192h286.013c-15.748-126.281-123.466-224-254.013-224-141.385 0-256 114.615-256 256 0 130.547 97.719 238.264 224 254.012v-286.012zM288 445.747v-189.746h189.747c-2.703 18.967-7.829 37.433-15.336 55.181-11.281 26.67-27.437 50.628-48.019 71.211-20.582 20.582-44.541 36.738-71.211 48.018-17.747 7.506-36.214 12.633-55.181 15.336zM256 480v0c141.385 0 256-114.615 256-256h-256v256z" />
<glyph unicode="&#xe159;" d="M64 32h448v-64h-512v512h64zM144 64c-26.51 0-48 21.49-48 48s21.49 48 48 48c1.414 0 2.811-0.074 4.194-0.193l51.596 85.993c-4.92 7.535-7.79 16.531-7.79 26.201 0 26.51 21.49 48 48 48 26.51 0 48-21.49 48-48 0-9.671-2.87-18.666-7.79-26.201l51.596-85.993c1.383 0.119 2.78 0.193 4.194 0.193 1.068 0 2.124-0.047 3.175-0.115l85.178 149.061c-5.268 7.704-8.353 17.018-8.353 27.055 0 26.51 21.49 48 48 48 26.51 0 48-21.49 48-48 0-26.51-21.49-48-48-48-1.070 0-2.124 0.047-3.175 0.116l-85.178-149.062c5.268-7.703 8.353-17.018 8.353-27.055 0-26.51-21.49-48-48-48-26.51 0-48 21.49-48 48 0 9.67 2.87 18.666 7.789 26.201l-51.595 85.992c-1.383-0.119-2.78-0.193-4.194-0.193s-2.811 0.073-4.194 0.193l-51.596-85.993c4.92-7.534 7.79-16.53 7.79-26.2 0-26.51-21.49-48-48-48z" />
<glyph unicode="&#xe15f;" d="M32 96h96v-128h-96zM160 160h96v-192h-96zM288 192h96v-224h-96zM416 288h96v-320h-96zM512 480v-144l-55.029 55.029-168.971-168.97-96 96-126.059-126.059h-33.941v33.941l160 160 96-96 135.029 135.030-55.029 55.029z" />
<glyph unicode="&#xe162;" d="M288 319.379v48.621c0 8.8-7.2 16-16 16h-32c-8.8 0-16-7.2-16-16v-48.621c-126.281-4.921-224-38.583-224-79.379v-192c0-44.183 114.615-80 256-80s256 35.817 256 80v192c0 40.796-97.719 74.458-224 79.379zM53.508 247.205c12.139 6.375 28.751 12.408 48.042 17.445 34.724 9.067 77.333 14.832 122.451 16.692v-41.342c0-8.8 7.2-16 16-16h32c8.8 0 16 7.2 16 16v41.342c45.117-1.86 87.727-7.625 122.45-16.692 19.291-5.038 35.903-11.070 48.042-17.445 5.353-2.812 9.059-5.266 11.582-7.205-2.523-1.939-6.229-4.394-11.582-7.205-12.139-6.375-28.751-12.408-48.042-17.445-42.846-11.189-97.697-17.35-154.451-17.35s-111.605 6.161-154.451 17.35c-19.291 5.037-35.903 11.070-48.042 17.445-5.353 2.812-9.059 5.266-11.582 7.205 2.524 1.939 6.23 4.394 11.583 7.205zM480 98.251c-43.667-24.599-127.604-41.251-224-41.251s-180.333 16.652-224 41.251v45c43.667-24.599 127.604-41.251 224-41.251s180.333 16.652 224 41.251v-45zM256 400c-17.673 0-32 14.327-32 32 0 0.625 0.022 1.244 0.058 1.859 1.21 30.753 31.942 46.141 31.942 46.141 0 0 30.732-15.388 31.942-46.141 0.036-0.615 0.058-1.234 0.058-1.859 0-17.673-14.327-32-32-32z" />
<glyph unicode="&#xe163;" d="M385.758 320c9.063 6.44 17.756 13.608 25.722 21.574 16.701 16.701 27.873 37.25 31.456 57.861 3.929 22.593-1.836 43.57-15.815 57.55-11.15 11.149-26.255 17.043-43.682 17.043-24.816 0-50.961-11.912-71.73-32.681-33.238-33.238-52.613-79.119-63.038-111.861-7.72 32.901-23.103 77.322-53.009 107.229-16.047 16.046-36.557 24.285-55.923 24.285-15.827 0-30.89-5.502-42.13-16.743-24.993-24.994-21.616-68.893 7.543-98.052 10.396-10.396 22.549-19.031 35.36-26.206h-108.512v-128h32v-224h384v224.001h32v128h-94.242zM337.163 415.891c13.862 13.862 31.161 22.137 46.275 22.137 5.35 0 12.854-1.127 18.225-6.499 13.015-13.014 5.706-43.154-15.64-64.499-21.973-21.973-51.53-37.084-77.216-47.030h-25.336c9.284 28.774 26.029 68.228 53.692 95.891zM116.967 399.555c-0.351 4.56-0.025 13.124 6.098 19.247 5.122 5.122 11.894 6.198 16.674 6.198v0c10.629 0 21.734-5.008 30.466-13.74 16.936-16.936 30.883-43.886 40.334-77.938 0.255-0.92 0.504-1.835 0.748-2.743-0.908 0.243-1.823 0.492-2.743 0.748-34.052 9.452-61.001 23.399-77.937 40.335-7.914 7.913-12.885 18.080-13.64 27.893zM224 0h-128v208h128v-208zM224 224h-160v64h160v-64zM416 0h-128v208h128v-208zM448 224h-160v64h160v-64z" />
<glyph unicode="&#xe168;" d="M352 256v128h-192v-96h-160v-256h512v224h-160zM128 128h-64v-32h64v-32h-96v96h64v32h-64v32h96v-96zM288 160h-32v128h-32v32h64v-160zM480 64h-96v32h64v32h-64v32h64v32h-64v32h96v-160z" />
<glyph unicode="&#xe169;" d="M416 320c0 25.319-19.607 46.045-44.465 47.856 16.296 18.858 15.506 47.377-2.398 65.281-17.903 17.903-46.423 18.694-65.28 2.399-1.812 24.857-22.537 44.464-47.857 44.464s-46.044-19.607-47.856-44.464c-18.857 16.295-47.377 15.504-65.281-2.399-17.903-17.904-18.694-46.423-2.399-65.281-24.856-1.812-44.464-22.537-44.464-47.856s19.607-46.044 44.464-47.856c-16.295-18.857-15.504-47.377 2.399-65.28 13.294-13.294 32.439-17.143 49.137-11.577v-227.287l64 64 64-64v227.286c16.698-5.565 35.843-1.717 49.137 11.577 17.904 17.903 18.694 46.422 2.398 65.28 24.858 1.812 44.465 22.538 44.465 47.857zM256 224c-53.020 0-96 42.98-96 96s42.98 96 96 96 96-42.98 96-96-42.98-96-96-96z" />
<glyph unicode="&#xe16a;" d="M448 272c0 106.039-85.961 192-192 192s-192-85.961-192-192c0-62.271 29.654-117.609 75.603-152.689l-75.603-151.311 96 64 32-64 44.823 112.951c6.308-0.626 12.704-0.951 19.177-0.951s12.869 0.325 19.178 0.951l44.822-112.951 32 64 96-64-75.603 151.311c45.949 35.080 75.603 90.418 75.603 152.689zM346.51 181.49c-24.176-24.176-56.321-37.49-90.51-37.49-34.19 0-66.334 13.314-90.51 37.49-24.176 24.176-37.49 56.32-37.49 90.51s13.314 66.333 37.49 90.51c24.177 24.176 56.32 37.49 90.51 37.49 34.189 0 66.334-13.314 90.51-37.49 24.176-24.176 37.49-56.32 37.49-90.51s-13.314-66.334-37.49-90.51z" />
<glyph unicode="&#xe16b;" d="M448 272c0 106.039-85.961 192-192 192s-192-85.961-192-192c0-62.271 29.654-117.609 75.603-152.689l-75.603-151.311 96 64 32-64 44.823 112.951c6.308-0.626 12.704-0.951 19.177-0.951s12.869 0.325 19.178 0.951l44.822-112.951 32 64 96-64-75.603 151.311c45.949 35.080 75.603 90.418 75.603 152.689zM346.51 181.49c-24.176-24.176-56.321-37.49-90.51-37.49-34.19 0-66.334 13.314-90.51 37.49-24.176 24.176-37.49 56.32-37.49 90.51s13.314 66.333 37.49 90.51c24.177 24.176 56.32 37.49 90.51 37.49 34.189 0 66.334-13.314 90.51-37.49 24.176-24.176 37.49-56.32 37.49-90.51s-13.314-66.334-37.49-90.51zM288 224v128h-64v-32h32v-96h-32v-32h96v32z" />
<glyph unicode="&#xe16c;" d="M448 272c0 106.039-85.961 192-192 192s-192-85.961-192-192c0-62.271 29.654-117.609 75.603-152.689l-75.603-151.311 96 64 32-64 44.823 112.951c6.308-0.626 12.704-0.951 19.177-0.951s12.869 0.325 19.178 0.951l44.822-112.951 32 64 96-64-75.603 151.311c45.949 35.080 75.603 90.418 75.603 152.689zM346.51 181.49c-24.176-24.176-56.321-37.49-90.51-37.49-34.19 0-66.334 13.314-90.51 37.49-24.176 24.176-37.49 56.32-37.49 90.51s13.314 66.333 37.49 90.51c24.177 24.176 56.32 37.49 90.51 37.49 34.189 0 66.334-13.314 90.51-37.49 24.176-24.176 37.49-56.32 37.49-90.51s-13.314-66.334-37.49-90.51zM192 320h96v-32h-96v-96h128v32h-96v32h96v96h-128z" />
<glyph unicode="&#xe16d;" d="M448 272c0 106.039-85.961 192-192 192s-192-85.961-192-192c0-62.271 29.654-117.609 75.603-152.689l-75.603-151.311 96 64 32-64 44.823 112.951c6.308-0.626 12.704-0.951 19.177-0.951s12.869 0.325 19.178 0.951l44.822-112.951 32 64 96-64-75.603 151.311c45.949 35.080 75.603 90.418 75.603 152.689zM346.51 181.49c-24.176-24.176-56.321-37.49-90.51-37.49-34.19 0-66.334 13.314-90.51 37.49-24.176 24.176-37.49 56.32-37.49 90.51s13.314 66.333 37.49 90.51c24.177 24.176 56.32 37.49 90.51 37.49 34.189 0 66.334-13.314 90.51-37.49 24.176-24.176 37.49-56.32 37.49-90.51s-13.314-66.334-37.49-90.51zM192 320h96v-32h-96v-32h96v-32h-96v-32h128v160h-128z" />
<glyph unicode="&#xe170;" d="M416 384v64h-320v-64h-96v-64c0-53.019 42.979-96 96-96 10.038 0 19.715 1.543 28.81 4.401 23.087-33.004 58.304-56.898 99.19-65.198v-99.203h-32c-35.347 0-64-28.653-64-64h256c0 35.347-28.653 64-64 64h-32v99.203c40.886 8.3 76.103 32.193 99.19 65.198 9.095-2.858 18.772-4.401 28.81-4.401 53.021 0 96 42.981 96 96v64h-96zM96 262c-31.981 0-58 26.019-58 58v32h58v-32c0-20.093 3.715-39.316 10.477-57.034-3.401-0.623-6.899-0.966-10.477-0.966zM474 320c0-31.981-26.019-58-58-58-3.578 0-7.076 0.343-10.477 0.966 6.762 17.718 10.477 36.941 10.477 57.034v32h58v-32z" />
<glyph unicode="&#xe172;" d="M357.49 352l66.584-66.584-168.074-189.083-168.074 189.083 66.584 66.584h202.98zM384 416h-256l-128-128 256-288 256 288-128 128z" />
<glyph unicode="&#xe177;" d="M416 320h-32v48c0 44.183-85.961 80-192 80-106.039 0-192-35.817-192-80v-288c0-44.183 85.961-80 192-80s192 35.817 192 80v48h32c52.8 0 96 43.2 96 96s-43.2 96-96 96zM88.028 385.199c28.971 9.545 65.895 14.801 103.972 14.801s75.002-5.256 103.972-14.801c18.497-6.094 29.704-12.623 35.705-17.199-6.001-4.576-17.208-11.104-35.705-17.199-28.97-9.545-65.895-14.801-103.972-14.801s-75.001 5.256-103.972 14.801c-18.497 6.095-29.704 12.623-35.705 17.199 6.001 4.576 17.208 11.104 35.705 17.199zM452.182 195.818c-4.414-4.414-13.945-11.818-28.182-11.818h-40v80h40c14.237 0 23.768-7.405 28.182-11.819s11.818-13.944 11.818-28.181-7.404-23.768-11.818-28.182z" />
<glyph unicode="&#xe178;" d="M432 480c-44.186 0-80-35.816-80-80v-240h64v-192h96v432c0 44.184-35.817 80-80 80zM208 480c-8.838 0-16-7.164-16-16v-112c0-4.418-7.164-8-16-8-8.838 0-16 3.582-16 8v112c0 8.836-7.164 16-16 16-8.837 0-16-7.164-16-16v-112c0-4.418-7.164-8-16-8-8.837 0-16 3.582-16 8v112c0 8.836-7.164 16-16 16-8.837 0-16-7.164-16-16v-112c0-4.418-7.164-8-16-8s-16 3.582-16 8v112c0 8.836-7.164 16-16 16s-16-7.164-16-16v-144c0-14.159 12.529-22.055 26.502-32 17.605-12.532 37.498-28.318 37.498-64v-256h96v256c0 35.682 19.893 51.468 37.496 64 13.973 9.945 26.504 17.841 26.504 32v144c0 8.836-7.163 16-16 16z" />
<glyph unicode="&#xe17a;" d="M358.774 480c-84.382-139.493-151.15-70.891-248.795-171.215-86.168-88.533-56.291-195.153 16.262-231.872 71.615 36.594 144.884 118.411 199.225 236.862 0 0 48.833-149.572-100.745-293.687 72.634-85.074 195.914-25.886 230.363 109.459 37.449 147.137-60.194 296.948-96.31 350.453zM48.506-3.121c0.058-1.453 1.711-28.879 37.683-28.879 26.172 0 158.916 72.339 227.133 260.102-103.219-182.607-253.060-227.919-264.816-231.223z" />
<glyph unicode="&#xe17b;" d="M256 321.347c-42.276 43.218-224 71.030-224-134.179 0-126.782 160.518-267.145 223.965-203.193h0.070c63.448-63.952 223.965 76.411 223.965 203.193 0 205.208-181.724 177.397-224 134.179zM416.552 138.75c-12.045-46.402-51.907-89.539-98.744-120.021 48.953 58.283 79.127 156.949 49.948 233.464-8.688 22.783-18.648 42.083-29.535 58.319 57.52-19.284 104.924-69.307 78.331-171.762zM240.162 377.972c6.817 1.627 13.289 3.756 19.451 6.256-2.241-10.334-3.613-21.223-3.613-32.228h10.67c9.286 43.374 44.19 94 90.727 94 0 23.833-16.166 34-34.355 34-17.31-8.583-32.418-23.974-44.621-45.713-6.589-11.738-13.463-27.834-17.835-45.851-0.872 5.087-2.174 10.19-3.983 15.276-19.745 55.531-88.56 87.943-153.703 72.394-7.376-1.761-14.368-4.085-20.977-6.861 0.827-6.278 2.301-12.591 4.537-18.878 19.744-55.532 88.559-87.944 153.702-72.395z" />
<glyph unicode="&#xe17c;" d="M267.169 204.001c-62.664 0-122.669-28.036-161.386-140.869-38.717-112.833 46.716-103.839 100.637-80.522 52.206 22.573 72.079 26.017 134.958-3.874 59.195-28.141 109.789 1.229 88.681 62.868-21.108 61.639-92.226 162.397-162.89 162.397zM148.636 458.214c-35.721-8.537-54.605-57.079-42.18-108.42 12.425-51.341 51.455-86.041 87.176-77.503 0.165 0.040 0.33 0.080 0.494 0.121 35.721 8.537 54.605 57.079 42.18 108.42-5.349 22.1-15.626 41.116-28.448 54.927-16.965 18.275-38.383 27.438-58.728 22.576-0.165-0.040-0.33-0.080-0.494-0.121zM355.568 460.004c-35.95 7.521-73.771-28.318-84.474-80.048-6.152-29.733-2.007-58.244 9.457-78.543 8.481-15.019 20.969-25.542 36.256-28.741 0.129-0.027 0.258-0.053 0.388-0.080 35.949-7.521 73.77 28.318 84.473 80.048 10.704 51.73-9.763 99.763-45.713 107.284-0.129 0.028-0.258 0.054-0.387 0.080zM10.295 193.139c19.751-45.678 61.375-71.645 92.969-57.996 18.079 7.81 28.957 26.896 31.254 50.356 1.718 17.539-1.36 37.521-9.81 57.063-0.011 0.026-0.022 0.052-0.034 0.078-19.751 45.678-61.375 71.645-92.969 57.997-31.594-13.648-41.195-61.741-21.444-107.42 0.011-0.026 0.023-0.052 0.034-0.078zM408.774 143.213c17.982-7.893 39.269-2.891 57.926 11.336 14.041 10.705 26.594 26.635 35.13 46.226 19.879 45.623 10.446 93.821-21.069 107.654-0.136 0.060-0.272 0.119-0.41 0.177-31.515 13.833-73.177-11.938-93.056-57.562-19.879-45.623-10.446-93.822 21.069-107.654 0.136-0.060 0.273-0.119 0.41-0.177z" />
<glyph unicode="&#xe17d;" d="M401.006 363.082c61.533-44.385 67.586-183.594 79.691-225.961l-114.557-45.395c-11.668 76.665-110.396 134.165-114.432 218.9-4.034 84.736 87.763 96.841 149.298 52.456zM470.609-26.298c-91.45-33.253-96.841 89.779-96.841 89.779l119.033 48.42c0.001 0 55.482-109.954-22.192-138.199zM1.074 384.476c12.126 74.896 85.596 131.247 142.661 68.477 57.061-62.77 27.905-173.24 73.867-235.695l-113.099-48.91c-21.403 38.517-115.557 141.232-103.429 216.128zM227.187 59.922c-74.894-34.951-113.415 82.033-113.415 82.033l118.411 49.934c0 0 83.182-90.813-4.996-131.967z" />
<glyph unicode="&#xe17e;" d="M505.647 291.136c-26.708 82.185-107.774 90.487-170.346 28.040 40.062 78.801 7.105 153.337-79.305 153.337s-119.357-74.535-79.31-153.333c-62.565 62.442-143.631 54.136-170.332-28.044-26.701-82.183 33.998-136.552 121.318-122.811-78.719-40.209-95.872-119.874-25.962-170.666 69.901-50.79 140.368-9.859 154.285 77.433 13.917-87.292 84.384-128.225 154.293-77.433 69.903 50.792 52.751 130.456-25.969 170.666 87.322-13.742 148.030 40.628 121.328 122.811zM255.996 137.049c-40.876 0-74.006 33.135-74.006 74.010 0 40.877 33.13 74.011 74.006 74.011 40.875 0 74.015-33.135 74.015-74.011 0-40.875-33.14-74.010-74.015-74.010z" />
<glyph unicode="&#xe17f;" d="M352 448l-160-160h-96l-96-128c0 0 101.708 28.326 161.033 15.042l-161.033-207.042 210.951 164.072c29.419-67.327-18.951-164.072-18.951-164.072l128 96v96l160 160 32 160-160-32z" />
<glyph unicode="&#xe188;" d="M160.504-32c-34.123 71.004-15.951 111.689 10.275 150.022 28.72 41.978 36.122 83.533 36.122 83.533 0 0 22.577-29.35 13.546-75.254 39.886 44.4 47.412 115.14 41.391 142.232 90.157-63.006 128.688-199.428 76.761-300.533 276.186 156.266 68.699 390.086 32.577 416.425 12.041-26.338 14.324-70.925-10-92.563-41.176 156.138-142.986 188.138-142.986 188.138 12.041-80.522-43.648-168.572-97.348-234.365-1.887 32.108-3.891 54.264-20.775 84.99-3.79-58.328-48.366-105.874-60.437-164.314-16.351-79.143 12.248-137.090 120.874-198.311z" />
<glyph unicode="&#xe18e;" d="M448 288c0 106.039-85.961 192-192 192s-192-85.961-192-192c0-71.066 38.613-133.109 96-166.308v-89.692l64-64h64l64 64v89.692c57.388 33.199 96 95.242 96 166.308zM304 32h-96c-8.8 0-16 7.2-16 16s7.2 16 16 16h96c8.8 0 16-7.2 16-16s-7.2-16-16-16zM320 141.272v146.728c17.674 0 32 14.327 32 32s-14.326 32-32 32-32-14.327-32-32v-188.812c-10.42-2.104-21.127-3.188-32-3.188-10.874 0-21.58 1.083-32 3.188v188.812c0 17.673-14.327 32-32 32s-32-14.327-32-32 14.327-32 32-32v-146.728c-18.103 7.901-34.75 19.203-49.137 33.59-30.22 30.221-46.863 70.4-46.863 113.138 0 42.737 16.643 82.917 46.863 113.137 30.22 30.22 70.4 46.863 113.137 46.863s82.917-16.643 113.138-46.863c30.219-30.22 46.862-70.399 46.862-113.137s-16.643-82.917-46.862-113.138c-14.388-14.386-31.035-25.688-49.138-33.59z" />
<glyph unicode="&#xe193;" d="M352 288h64v-272c0-26.4-21.6-48-48-48h-224c-26.4 0-48 21.6-48 48v272h64v-256h64v256h64v-256h64v256zM64 384h384v-64h-384zM192 448h128v-48h-128z" />
<glyph unicode="&#xe19b;" d="M224 128l196.818-70.244 91.182 398.678zM160 150.046l352 306.388-512-253.231zM224 94.023v-126.023l92.876 92.876z" />
<glyph unicode="&#xe19f;" d="M512 192l-64 128h-96v64c0 17.6-14.4 32-32 32h-288c-17.6 0-32-14.4-32-32v-256l32-32h40.583c-5.449-9.416-8.583-20.339-8.583-32 0-35.346 28.654-64 64-64s64 28.654 64 64c0 11.661-3.134 22.584-8.583 32h177.167c-5.449-9.416-8.584-20.339-8.584-32 0-35.346 28.654-64 64-64s64 28.654 64 64c0 11.661-3.135 22.584-8.584 32h40.584v96zM352 192v80h66.334l40-80h-106.334z" />
<glyph unicode="&#xe1b4;" d="M177.779 333.993v-109.993c0-33.313 13.555-65.756 40.286-96.43 13.125-15.061 26.722-26.534 37.937-34.635 11.215 8.101 24.811 19.574 37.936 34.635 26.732 30.674 40.287 63.117 40.287 96.43v109.993l-78.225 26.074-78.221-26.074zM256 480l-192-64c0 0 0-96 0-192 0-160.001 160-256 192-256s192 95.999 192 256c0 96 0 192 0 192l-192 64zM384 224c0-25.2-5.523-50.083-16.419-73.958-9.677-21.207-23.497-41.633-41.079-60.711-26.953-29.245-55.599-47.326-70.502-54.681-14.902 7.354-43.548 25.436-70.501 54.681-17.582 19.078-31.403 39.504-41.080 60.711-10.894 23.875-16.419 48.758-16.419 73.958v145.871l128 42.667 128-42.667v-145.871z" />
<glyph unicode="&#xe1b9;" d="M320 406.706v-67.979c18.103-7.902 34.75-19.204 49.137-33.59 30.221-30.22 46.863-70.4 46.863-113.137s-16.643-82.917-46.863-113.137c-30.22-30.22-70.399-46.863-113.137-46.863s-82.917 16.643-113.137 46.863c-30.22 30.22-46.863 70.4-46.863 113.137s16.643 82.917 46.863 113.137c14.387 14.387 31.034 25.689 49.137 33.591v67.978c-92.524-27.54-160-113.236-160-214.706 0-123.712 100.289-224 224-224 123.712 0 224 100.288 224 224 0 101.47-67.475 187.166-160 214.706zM224 480h64v-256h-64z" />
<glyph unicode="&#xe1bd;" d="M0 480h128v-128h-128zM192 448h320v-64h-320zM0 288h128v-128h-128zM192 256h320v-64h-320zM0 96h128v-128h-128zM192 64h320v-64h-320z" />
<glyph unicode="&#xe1c1;" d="M0 480h128v-128h-128zM192 480h128v-128h-128zM384 480h128v-128h-128zM0 288h128v-128h-128zM192 288h128v-128h-128zM384 288h128v-128h-128zM0 96h128v-128h-128zM192 96h128v-128h-128zM384 96h128v-128h-128z" />
<glyph unicode="&#xe1cd;" d="M512 151.229c0 41.045-28.339 75.45-66.498 84.74-1.621 64.35-54.229 116.031-118.931 116.031-37.896 0-71.633-17.747-93.427-45.366-12.221 15.799-31.345 25.98-52.854 25.98-36.905 0-66.821-29.937-66.821-66.861 0-3.218 0.24-6.38 0.682-9.477-5.611 1.012-11.383 1.569-17.285 1.569-53.499 0.001-96.866-43.393-96.866-96.921 0-53.531 43.367-96.924 96.865-96.924l328.131 0.006c48.069 0.092 87.004 39.106 87.004 87.223z" />
<glyph unicode="&#xe1ce;" d="M445.502 299.97c-1.621 64.349-54.229 116.030-118.931 116.030-37.896 0-71.633-17.747-93.427-45.366-12.221 15.799-31.345 25.98-52.854 25.98-36.905 0-66.821-29.937-66.821-66.861 0-3.218 0.24-6.38 0.682-9.477-5.611 1.012-11.383 1.569-17.285 1.569-53.499 0.001-96.866-43.393-96.866-96.921 0-53.531 43.367-96.924 96.865-96.924h49.88l109.255-109.255 109.255 109.255 59.741 0.006c48.069 0.092 87.004 39.106 87.004 87.223 0 41.045-28.339 75.45-66.498 84.741zM256 64l-96 96h64v96h64v-96h64l-96-96z" />
<glyph unicode="&#xe1cf;" d="M446.134 286.755c1.222 5.555 1.866 11.324 1.866 17.245 0 44.183-35.817 80-80 80-7.111 0-14.007-0.934-20.566-2.676-12.399 38.676-48.645 66.676-91.434 66.676-43.674 0-80.527-29.168-92.163-69.085-11.371 3.311-23.396 5.085-35.837 5.085-70.692 0-128-57.308-128-128 0-70.694 57.308-128 128-128h64v-96h128v96h112c44.183 0 80 35.816 80 80 0 39.36-28.427 72.081-65.866 78.755zM288 160v-96h-64v96h-80l112 112 112-112h-80z" />
<glyph unicode="&#xe1d0;" d="M448 128v-64h-384v64h-64v-128h512v128zM384 288h-96v160h-64v-160h-96l128-192z" />
<glyph unicode="&#xe1d1;" d="M448 128v-64h-384v64h-64v-128h512v128zM128 256h96v-160h64v160h96l-128 192z" />
<glyph unicode="&#xe1da;" d="M437.020 405.019c48.351-48.352 74.98-112.64 74.98-181.020s-26.629-132.667-74.98-181.019c-48.353-48.351-112.64-74.98-181.020-74.98-68.38 0-132.667 26.629-181.020 74.98-48.351 48.352-74.98 112.639-74.98 181.019 0 68.38 26.627 132.668 74.98 181.020 48.353 48.352 112.64 74.981 181.020 74.981 68.38 0 132.667-26.629 181.020-74.981zM414.392 65.607c31.529 31.53 52.493 70.804 61.136 113.531-6.737-9.918-13.181-13.597-17.172 8.603-4.11 36.195-37.354 13.074-58.258 25.93-22.002-14.829-71.453 28.831-63.049-20.412 12.967-22.211 70.004 29.725 41.574-17.271-18.137-32.808-66.321-105.466-60.053-143.129 0.791-54.872-56.067-11.442-75.657 6.76-13.178 36.46-4.491 100.187-38.949 118.043-37.401 1.624-69.502 5.023-83.997 46.835-8.723 29.914 9.282 74.447 41.339 81.322 46.925 29.483 63.687-34.527 107.695-35.717 13.664 14.297 50.908 18.843 53.996 34.875-28.875 5.095 36.634 24.279-2.764 35.191-21.735-2.556-35.739-22.537-24.184-39.479-42.119-9.821-43.468 60.952-83.955 38.629-1.029-35.295-66.111-11.443-22.518-4.286 14.978 6.544-24.43 25.508-3.14 22.062 10.458 0.568 45.666 12.906 36.138 21.201 19.605 12.17 36.080-29.145 55.269 0.941 13.854 23.133-5.81 27.404-23.175 15.678-9.79 10.962 17.285 34.638 41.166 44.869 7.959 3.41 15.561 5.268 21.373 4.742 12.029-13.896 34.275-16.303 35.439 1.671-29.791 14.267-62.638 21.804-96.646 21.804-48.811 0-95.235-15.512-133.654-44.195 10.325-4.73 16.186-10.619 6.239-18.148-7.728-23.027-39.085-53.938-66.612-49.562-14.293-24.648-23.706-51.803-27.73-80.264 23.056-7.628 28.372-22.725 23.418-27.775-11.748-10.244-18.968-24.765-22.688-40.661 7.505-45.918 29.086-88.238 62.635-121.788 42.308-42.307 98.559-65.607 158.392-65.607 59.832 0 116.084 23.3 158.392 65.607z" />
<glyph unicode="&#xe1db;" d="M160 128c8.8-8.8 23.637-8.363 32.971 0.971l158.059 158.058c9.334 9.334 9.77 24.171 0.97 32.971s-23.637 8.363-32.971-0.971l-158.058-158.058c-9.334-9.334-9.771-24.171-0.971-32.971zM238.444 142.444c2.28-4.525 3.495-9.58 3.495-14.848 0-8.808-3.372-17.030-9.496-23.154l-81.691-81.691c-6.124-6.124-14.347-9.496-23.154-9.496s-17.030 3.372-23.154 9.496l-49.691 49.691c-6.124 6.124-9.496 14.347-9.496 23.154s3.372 17.030 9.496 23.154l81.691 81.691c6.124 6.124 14.347 9.497 23.154 9.497 5.268 0 10.322-1.215 14.848-3.495l32.669 32.669c-13.935 10.705-30.72 16.080-47.517 16.080-19.993 0-39.986-7.583-55.154-22.751l-81.691-81.691c-30.335-30.335-30.335-79.974 0-110.309l49.691-49.691c15.167-15.166 35.16-22.75 55.153-22.75 19.994 0 39.987 7.584 55.154 22.751l81.691 81.691c27.91 27.91 30.119 72.149 6.672 102.672l-32.67-32.67zM489.249 407.558l-49.691 49.691c-15.167 15.168-35.16 22.751-55.154 22.751-19.993 0-39.986-7.583-55.154-22.751l-81.691-81.691c-27.91-27.91-30.119-72.149-6.671-102.671l32.669 32.67c-2.279 4.525-3.494 9.58-3.494 14.847 0 8.808 3.372 17.030 9.496 23.154l81.691 81.691c6.124 6.124 14.347 9.497 23.154 9.497s17.030-3.373 23.154-9.497l49.691-49.691c6.124-6.124 9.496-14.347 9.496-23.154s-3.372-17.030-9.496-23.154l-81.691-81.691c-6.124-6.124-14.347-9.496-23.154-9.496-5.268 0-10.322 1.215-14.848 3.495l-32.669-32.669c13.936-10.705 30.72-16.080 47.517-16.080 19.994 0 39.987 7.584 55.154 22.751l81.691 81.691c30.335 30.333 30.335 79.972 0 110.307z" />
<glyph unicode="&#xe1e2;" d="M448 192v-66.098c-40.261-41.123-96.519-80.825-160-91.254v189.352h96v32l-96 37.471c37.282 13.18 64 48.731 64 90.529 0 53.020-42.98 96-96 96-53.021 0-96-42.98-96-96 0-41.798 26.715-77.35 64-90.529v-0.006l-96-37.465v-32h96v-189.352c-63.484 10.429-119.742 50.131-160 91.254v66.098h-64v-32c0-64 128-192 256-192s256 128 256 192v32h-64zM288 384c0-17.673-14.327-32-32-32s-32 14.327-32 32 14.327 32 32 32c17.673 0 32-14.327 32-32z" />
<glyph unicode="&#xe1e5;" d="M254.059 418.977c-48.178 57.25-84.69 61.023-158.059 61.023v-256c128.267 64 142.636-8.335 223.506-1.023 79.728 7.22 147.525 68.587 192.494 129.023-127.356-29.453-191.46-12.023-257.941 66.977zM0 480h64v-512h-64z" />
<glyph unicode="&#xe1e7;" d="M348.916 316.476l-32.476 32.461-162.405-162.371c-26.907-26.896-26.907-70.524 0-97.422 26.902-26.896 70.53-26.896 97.437 0l194.886 194.854c44.857 44.831 44.857 117.531 0 162.363-44.833 44.852-117.556 44.852-162.391 0l-204.615-204.589c-0.145-0.152-0.306-0.288-0.438-0.423-62.551-62.548-62.551-163.928 0-226.453 62.527-62.528 163.934-62.528 226.494 0 0.137 0.137 0.258 0.284 0.41 0.438l0.016-0.017 139.666 139.646-32.493 32.46-139.665-139.631c-0.148-0.134-0.282-0.285-0.423-0.422-44.537-44.529-116.99-44.529-161.538 0-44.531 44.521-44.531 116.961 0 161.489 0.152 0.152 0.302 0.291 0.444 0.423l-0.023 0.030 204.64 204.583c26.856 26.869 70.572 26.869 97.443 0 26.856-26.867 26.856-70.574 0-97.42l-194.886-194.85c-8.968-8.961-23.527-8.961-32.486 0-8.947 8.943-8.947 23.516 0 32.46l162.403 162.391z" />
<glyph unicode="&#xe1e9;" d="M256 384c-111.659 0-208.441-65.021-256-160 47.559-94.979 144.341-160 256-160 111.657 0 208.439 65.021 256 160-47.558 94.979-144.343 160-256 160zM382.225 299.148c30.081-19.187 55.571-44.887 74.717-75.148-19.146-30.261-44.637-55.961-74.718-75.149-37.797-24.108-81.445-36.851-126.224-36.851-44.78 0-88.428 12.743-126.225 36.852-30.080 19.186-55.57 44.886-74.717 75.148 19.146 30.262 44.637 55.962 74.717 75.148 1.959 1.25 3.938 2.461 5.929 3.65-4.979-13.664-7.704-28.411-7.704-43.798 0-70.692 57.308-128 128-128s128 57.308 128 128c0 15.387-2.725 30.134-7.704 43.799 1.99-1.189 3.969-2.401 5.929-3.651zM256 275c0-26.51-21.49-48-48-48s-48 21.49-48 48 21.49 48 48 48 48-21.49 48-48z" />
<glyph unicode="&#xe1ea;" d="M419.661 331.792c38.822-27.515 70.685-64.546 92.339-107.792-47.561-94.979-144.343-160-256-160-31.283 0-61.396 5.106-89.589 14.542l38.978 38.978c16.529-3.65 33.486-5.52 50.611-5.52 44.779 0 88.427 12.743 126.223 36.852 30.081 19.188 55.572 44.888 74.718 75.149-18.526 29.283-43.007 54.275-71.825 73.247l34.545 34.544zM256 131c-11.362 0-22.376 1.488-32.864 4.267l156.593 156.592c2.781-10.486 4.271-21.497 4.271-32.859 0-70.692-57.308-128-128-128zM480 480h-26.869l-109.806-109.806c-27.538 8.962-56.877 13.806-87.325 13.806-111.659 0-208.441-65.021-256-160 21.329-42.596 52.564-79.154 90.597-106.534l-90.597-90.597v-26.869h26.869l453.131 453.131v26.869zM208 323c24.022 0 43.923-17.647 47.446-40.685l-54.762-54.762c-23.037 3.524-40.684 23.425-40.684 47.447 0 26.51 21.49 48 48 48zM55.058 224c19.146 30.262 44.637 55.962 74.717 75.148 1.959 1.25 3.938 2.461 5.929 3.65-4.979-13.664-7.704-28.411-7.704-43.798 0-29.262 9.825-56.224 26.349-77.781l-29.275-29.275c-28.036 18.821-51.877 43.386-70.016 72.056z" />
<glyph unicode="&#xe1f2;" d="M96 480v-512l160 160 160-160v512z" />
<glyph unicode="&#xe1f3;" d="M96 480v-512l160 160 160-160v512h-320zM384 45.255l-128 128-128-128v402.745h256v-402.745z" />
<glyph unicode="&#xe1f4;" d="M128 416v-448l160 160 160-160v448zM384 480h-320v-448l32 32v384h288z" />
<glyph unicode="&#xe1f6;" d="M445.502 331.969c-1.621 64.35-54.229 116.031-118.932 116.031-37.896 0-71.632-17.747-93.426-45.366-12.221 15.8-31.345 25.98-52.854 25.98-36.905 0-66.821-29.938-66.821-66.861 0-3.218 0.24-6.38 0.682-9.477-5.61 1.012-11.383 1.569-17.284 1.569-53.5 0.001-96.867-43.393-96.867-96.921 0-53.531 43.367-96.924 96.865-96.924h82.737l21.333 64h170.842l-32-64 85.219 0.007c48.069 0.091 87.004 39.104 87.004 87.222 0 41.044-28.34 75.45-66.498 84.74zM320 192h-96l-32-96h64l-32-96 128 128h-64z" />
<glyph unicode="&#xe1f7;" d="M445.502 331.969c38.158-9.29 66.498-43.696 66.498-84.74 0-48.118-38.935-87.131-87.004-87.223v-0.006h-328.131c-53.498 0-96.865 43.393-96.865 96.924 0 53.528 43.367 96.922 96.867 96.921 5.901 0 11.674-0.557 17.284-1.569-0.442 3.097-0.682 6.259-0.682 9.477 0 36.923 29.916 66.861 66.821 66.861 21.509 0 40.633-10.181 52.854-25.98 21.794 27.619 55.531 45.366 93.427 45.366 64.702 0 117.31-51.681 118.931-116.031zM112 128c0 0 48-64 48-112 0-26.51-21.49-48-48-48-26.51 0-48 21.49-48 48s48 112 48 112zM400 128c0 0 48-64 48-112 0-26.51-21.49-48-48-48-26.51 0-48 21.49-48 48s48 112 48 112zM256 160c0 0 48-64 48-112 0-26.51-21.49-48-48-48-26.51 0-48 21.49-48 48s48 112 48 112z" />
<glyph unicode="&#xe1f8;" d="M445.502 331.969c38.158-9.29 66.498-43.696 66.498-84.74 0-48.118-38.935-87.131-87.004-87.223v-0.006h-328.131c-53.498 0-96.865 43.393-96.865 96.924 0 53.528 43.367 96.922 96.867 96.921 5.901 0 11.674-0.557 17.284-1.569-0.442 3.097-0.682 6.259-0.682 9.477 0 36.923 29.916 66.861 66.821 66.861 21.509 0 40.633-10.181 52.854-25.98 21.794 27.619 55.531 45.366 93.427 45.366 64.702 0 117.31-51.681 118.931-116.031zM447.984 75.916c0.153-2.498-0.843-4.242-2.992-5.244l-55.422-22.674 55.422-22.889c2.15-0.853 3.146-2.529 2.992-5.021-0.146-2.502-1.985-6.526-5.521-12.087-3.534-5.704-6.408-9.199-8.628-10.48-2.221-1.286-4.254-1.286-6.094 0l-48.992 33.155 6.44-56.047c0.464-2.136-0.55-3.775-2.995-4.916-2.453-1.142-7.207-1.713-14.263-1.713-7.052 0-11.807 0.574-14.249 1.713-2.459 1.141-3.459 2.78-3 4.916l6.443 56.047-48.766-33.155c-1.84-1.286-3.914-1.286-6.207 0-2.301 1.281-5.219 4.776-8.741 10.48-3.542 5.561-5.331 9.585-5.409 12.087-0.079 2.492 0.956 4.167 3.11 5.021l55.425 22.889-55.425 22.674c-2.154 0.998-3.189 2.746-3.11 5.244 0.078 2.493 1.867 6.522 5.409 12.083 3.525 5.558 6.437 8.975 8.741 10.26 2.301 1.282 4.367 1.282 6.207 0l48.766-32.93-6.443 55.825c-0.459 2.283 0.541 3.989 3 5.126 2.447 1.149 7.197 1.72 14.249 1.72 7.056 0 11.81-0.578 14.263-1.72 2.445-1.134 3.459-2.843 2.995-5.126l-6.44-55.825 48.992 32.93c1.84 1.282 3.876 1.282 6.094 0 2.22-1.286 5.094-4.776 8.628-10.474 3.537-5.416 5.368-9.371 5.521-11.869zM223.984 75.916c0.153-2.498-0.843-4.242-2.992-5.244l-55.422-22.674 55.422-22.889c2.15-0.853 3.146-2.529 2.992-5.021-0.146-2.502-1.985-6.526-5.521-12.087-3.534-5.704-6.408-9.199-8.628-10.48-2.221-1.286-4.254-1.286-6.094 0l-48.992 33.155 6.44-56.047c0.464-2.136-0.55-3.775-2.995-4.916-2.453-1.142-7.207-1.713-14.263-1.713-7.052 0-11.807 0.574-14.249 1.713-2.459 1.141-3.459 2.78-3 4.916l6.443 56.047-48.766-33.155c-1.84-1.286-3.914-1.286-6.207 0-2.301 1.281-5.219 4.776-8.741 10.48-3.542 5.561-5.331 9.585-5.409 12.087-0.079 2.492 0.956 4.167 3.11 5.021l55.425 22.889-55.425 22.674c-2.154 0.998-3.189 2.746-3.11 5.244 0.078 2.493 1.867 6.522 5.409 12.083 3.525 5.558 6.437 8.975 8.741 10.26 2.301 1.282 4.367 1.282 6.207 0l48.766-32.93-6.443 55.825c-0.459 2.283 0.541 3.989 3 5.126 2.447 1.149 7.197 1.72 14.249 1.72 7.056 0 11.81-0.578 14.263-1.72 2.445-1.134 3.459-2.843 2.995-5.126l-6.44-55.825 48.992 32.93c1.84 1.282 3.876 1.282 6.094 0 2.22-1.286 5.094-4.776 8.628-10.474 3.537-5.416 5.368-9.371 5.521-11.869z" />
<glyph unicode="&#xe1f9;" d="M336 320c-26.51 0-48 21.49-48 48s21.49 48 48 48 48-21.49 48-48c0-2.305-0.173-4.569-0.486-6.788l31.675-4.525c0.524 3.698 0.811 7.471 0.811 11.313 0 44.183-35.817 80-80 80s-80-35.817-80-80 35.817-80 80-80h176v32h-176zM64 96c0-53.019 42.981-96 96-96s96 42.981 96 96c0 8.032-0.992 15.831-2.851 23.287l-31.056-7.764c1.24-4.97 1.907-10.169 1.907-15.523 0-35.347-28.654-64-64-64s-64 28.653-64 64 28.654 64 64 64h352v32h-352c-53.019 0-96-42.979-96-96zM32 336c0 44.183 35.817 80 80 80s80-35.817 80-80c0-11.811-2.58-23.012-7.174-33.103l29.157-13.253c6.432 14.127 10.017 29.822 10.017 46.356 0 61.856-50.144 112-112 112s-112-50.144-112-112c0-61.855 50.144-112 112-112h400v32h-400c-44.182 0-80 35.817-80 80z" />
<glyph unicode="&#xe1fa;" d="M460.453 227.699c-25.392 25.391-56.613 41.391-89.355 48.021l102.556 102.556c21.799 21.801 33.919 49.609-7.144 77.164-67.535 40.093-156.121 31.101-214.208-26.987-25.392-25.392-41.391-56.614-48.021-89.355l-102.556 102.556c-21.801 21.798-49.61 33.919-77.164-7.144-40.093-67.535-31.101-156.121 26.986-214.208 25.392-25.392 56.614-41.391 89.356-48.021l-102.556-102.557c-21.799-21.801-33.919-49.609 7.144-77.162 67.535-40.094 156.121-31.102 214.208 26.984 25.392 25.393 41.392 56.614 48.021 89.357l102.556-102.556c21.802-21.799 49.609-33.92 77.164 7.143 40.093 67.535 31.1 156.121-26.987 214.209zM256 160c-35.346 0-64 28.653-64 64 0 35.346 28.654 64 64 64 35.347 0 64-28.654 64-64 0-35.347-28.653-64-64-64z" />
<glyph unicode="&#xe1fb;" d="M287.933 446.020c126.313-15.718 224.067-123.45 224.067-254.020h-8.582c-11.067 19.124-31.731 32-55.417 32-23.685 0-44.349-12.876-55.416-32h-17.168c-11.067 19.124-31.731 32-55.416 32-11.662 0-22.588-3.127-32-8.579v-167.421c0-44.112-35.888-80-80-80s-80 35.888-80 80c0 17.673 14.327 32 32 32 17.673 0 32-14.327 32-32 0-8.822 7.178-16 16-16 8.822 0 16 7.178 16 16v167.422c-9.413 5.451-20.338 8.578-32 8.578-23.686 0-44.35-12.876-55.417-32h-17.167c-11.068 19.124-31.732 32-55.417 32s-44.349-12.876-55.417-32h-8.583c0 130.57 97.754 238.302 224.067 254.020-0.040 0.655-0.067 1.314-0.067 1.98 0 17.673 14.327 32 32 32 17.673 0 32-14.327 32-32 0-0.666-0.027-1.325-0.067-1.98z" />
<glyph unicode="&#xe1fe;" d="M256 269c-24.813 0-45-20.187-45-45s20.187-45 45-45c24.813 0 45 20.187 45 45 0 24.813-20.187 45-45 45zM256 320v0c53.020 0 96-42.98 96-96s-42.98-96-96-96c-53.020 0-96 42.98-96 96 0 53.020 42.98 96 96 96zM470.627 54.627c12.498-12.497 12.497-32.758 0-45.254-12.497-12.498-32.757-12.498-45.254 0l-64 64c-12.498 12.497-12.498 32.757 0 45.254 12.496 12.497 32.757 12.498 45.254 0l64-64zM150.627 374.627c12.498-12.497 12.497-32.758 0-45.254-12.497-12.498-32.757-12.498-45.254 0l-64 64c-12.498 12.497-12.498 32.757 0 45.254 12.496 12.497 32.757 12.498 45.254 0l64-64zM425.372 438.627c12.497 12.498 32.758 12.497 45.254 0 12.498-12.497 12.498-32.757 0.001-45.254l-64-64c-12.498-12.498-32.758-12.498-45.254 0-12.498 12.496-12.498 32.757 0 45.254l63.999 64zM105.373 118.627c12.497 12.498 32.757 12.497 45.254 0 12.498-12.497 12.498-32.757 0-45.254l-64-64c-12.497-12.498-32.757-12.498-45.254 0-12.497 12.496-12.498 32.757 0 45.254l64 64zM256 480c17.673 0 32-14.327 32-32v-64c0-17.673-14.327-32-32-32s-32 14.327-32 32v64c0 17.673 14.327 32 32 32zM256 96c17.673 0 32-14.326 32-32v-64c0-17.674-14.327-32-32-32s-32 14.326-32 32v64c0 17.674 14.327 32 32 32zM0 224c0 17.673 14.327 32 32 32h64c17.673 0 32-14.327 32-32 0-17.674-14.327-32-32-32h-64c-17.673 0-32 14.326-32 32zM384 224c0 17.673 14.326 32 32 32h64c17.674 0 32-14.327 32-32s-14.326-32-32-32h-64c-17.674 0-32 14.327-32 32z" />
<glyph unicode="&#xe209;" d="M512 281.475l-176.89 25.704-79.11 160.291-79.108-160.291-176.892-25.704 128-124.769-30.216-176.176 158.216 83.179 158.216-83.179-30.217 176.176 128.001 124.769zM256 103.251l-111.731-58.74 21.338 124.415-90.393 88.111 124.92 18.152 55.866 113.198 55.868-113.198 124.918-18.152-90.394-88.111 21.339-124.415-111.731 58.74z" />
<glyph unicode="&#xe20b;" d="M512 281.475l-176.89 25.704-79.11 160.291-79.108-160.291-176.892-25.704 128-124.769-30.216-176.176 158.216 83.179 158.216-83.179-30.217 176.176 128.001 124.769z" />
<glyph unicode="&#xe212;" d="M376 448c-51.956 0-97.1-29.138-120-71.96-22.901 42.822-68.045 71.96-120 71.96-75.111 0-136-60.89-136-136 0-184 256-312 256-312s256 128 256 312c0 75.11-60.889 136-136 136z" />
<glyph unicode="&#xe213;" d="M256 0l-13.97 6.779c-9.883 4.795-242.030 119.45-242.030 293.734 0 81.325 67.738 147.487 151 147.487 39.83 0 77.258-15.237 105-41.462 27.742 26.225 65.17 41.462 105 41.462 83.262 0 151-66.162 151-147.487 0-174.284-232.147-288.938-242.030-293.733l-13.97-6.78zM151 384c-47.972 0-87-37.452-87-83.487 0-67.976 54.123-127.616 99.526-165.68 36.25-30.39 73.062-52.351 92.474-63.081 19.412 10.73 56.224 32.691 92.474 63.081 45.403 38.063 99.526 97.704 99.526 165.68 0 46.035-39.028 83.487-87 83.487-32.336 0-61.831-17.070-76.974-44.55l-28.026-50.86-28.026 50.86c-15.143 27.48-44.638 44.55-76.974 44.55z" />
<glyph unicode="&#xe214;" d="M376 448c75.111 0 136-60.89 136-136 0-184-256-312-256-312 0 0-256 128-256 312 0 75.11 60.889 136 136 136 31.047 0 59.657-10.412 82.547-27.924l-42.547-68.076 112-64-64-160 176 192-112 64 35.707 53.561c16.1 6.714 33.759 10.439 52.293 10.439z" />
<glyph unicode="&#xe216;" d="M496 144c0 16.458-8.978 30.977-22.654 39.624 4.222 7.146 6.654 15.476 6.654 24.376 0 26.51-21.49 48-48 48h-93.904c11.228 40.455 16.904 82.296 16.904 125 0 36.944-30.056 67-67 67-36.943 0-67-30.056-67-67 0-51.986-19.361-91.975-57.545-118.855-10.5-7.392-22.371-13.743-35.455-19.033v44.888h-128v-320h128v31.499c29.945-1.966 44.484-9.461 58.595-16.747 14.044-7.253 28.566-14.752 53.405-14.752h160c26.51 0 48 21.49 48 48 0 6.249-1.207 12.213-3.38 17.688 20.385 5.543 35.38 24.171 35.38 46.312 0 8.9-2.432 17.23-6.654 24.376 13.676 8.647 22.654 23.166 22.654 39.624zM48 0c-8.836 0-16 7.163-16 16s7.164 16 16 16 16-7.163 16-16-7.164-16-16-16zM444 128h-28v-32h16c8.822 0 16-7.178 16-16s-7.178-16-16-16h-32v-32c8.822 0 16-7.178 16-16s-7.178-16-16-16h-160c-17.064 0-26.149 4.691-38.723 11.185-15.874 8.196-35.193 18.16-73.277 20.364v171.111c21.468 7.214 40.714 16.715 57.329 28.412 48.196 33.928 73.671 85.772 73.671 149.928 0 15.991 13.010 29 29 29s29-13.009 29-29c0-42.83-6.207-84.706-18.48-125-3.099-11.509-6.033-22.913-8.012-32h141.492c8.822 0 16-7.178 16-16s-7.178-16-16-16h-16v-32h28c10.841 0 20-7.327 20-16s-9.159-16-20-16z" />
<glyph unicode="&#xe218;" d="M16 272c0-16.458 8.978-30.977 22.654-39.624-4.222-7.146-6.654-15.476-6.654-24.376 0-26.51 21.49-48 48-48h93.904c-11.228-40.455-16.904-82.296-16.904-125 0-36.944 30.056-67 67-67 36.943 0 67 30.056 67 67 0 51.986 19.361 91.975 57.545 118.855 10.5 7.392 22.371 13.743 35.455 19.033v-44.888h128v320h-128v-31.499c-29.945 1.966-44.484 9.461-58.595 16.747-14.044 7.253-28.566 14.752-53.405 14.752h-160c-26.51 0-48-21.49-48-48 0-6.249 1.207-12.213 3.38-17.688-20.385-5.543-35.38-24.171-35.38-46.312 0-8.9 2.432-17.23 6.654-24.376-13.676-8.647-22.654-23.166-22.654-39.624zM464 416c8.836 0 16-7.163 16-16s-7.164-16-16-16-16 7.163-16 16 7.164 16 16 16zM68 288h28v32h-16c-8.822 0-16 7.178-16 16s7.178 16 16 16h32v32c-8.822 0-16 7.178-16 16s7.178 16 16 16h160c17.064 0 26.149-4.691 38.723-11.185 15.874-8.196 35.193-18.16 73.277-20.364v-171.111c-21.468-7.214-40.714-16.715-57.329-28.412-48.196-33.928-73.671-85.772-73.671-149.928 0-15.991-13.010-29-29-29s-29 13.009-29 29c0 42.83 6.207 84.706 18.48 125 3.099 11.509 6.033 22.913 8.012 32h-141.492c-8.822 0-16 7.178-16 16s7.178 16 16 16h16v32h-28c-10.841 0-20 7.327-20 16s9.159 16 20 16z" />
<glyph unicode="&#xe21d;" d="M320 480v-64h82.745l-122.516-122.517c-25.294 16.753-55.619 26.517-88.229 26.517-88.365 0-160-71.634-160-160 0-88.365 71.634-160 160-160s160 71.635 160 160c0 32.609-9.765 62.936-26.517 88.229l122.517 122.516v-82.745h64v192h-192zM192 54.4c-58.321 0-105.6 47.28-105.6 105.6s47.279 105.601 105.6 105.601c58.32 0 105.6-47.279 105.6-105.601 0-58.32-47.279-105.6-105.6-105.6z" />
<glyph unicode="&#xe21f;" d="M288 163.204c73.030 14.825 128 79.391 128 156.796 0 88.366-71.635 160-160 160s-160-71.634-160-160c0-77.405 54.969-141.971 128-156.796v-67.204h-96v-64h96v-64h64v64h96v64h-96v67.204zM150.401 320c0 58.321 47.278 105.601 105.601 105.601 58.321 0 105.6-47.28 105.6-105.601 0-58.32-47.279-105.6-105.601-105.6-58.323 0-105.6 47.28-105.6 105.6z" />
<glyph unicode="&#xe224;" d="M256-32c141.385 0 256 114.615 256 256s-114.615 256-256 256-256-114.615-256-256 114.615-256 256-256zM256 432c114.875 0 208-93.125 208-208s-93.125-208-208-208-208 93.125-208 208 93.125 208 208 208zM128 320c0 17.673 14.327 32 32 32s32-14.327 32-32c0-17.673-14.327-32-32-32-17.673 0-32 14.327-32 32zM320 320c0 17.673 14.327 32 32 32s32-14.327 32-32c0-17.673-14.327-32-32-32-17.673 0-32 14.327-32 32zM352.049 166.37l41.164-24.698c-27.981-46.535-78.958-77.672-137.213-77.672s-109.232 31.137-137.213 77.672l41.164 24.698c19.587-32.574 55.271-54.37 96.049-54.37s76.462 21.796 96.049 54.37z" />
<glyph unicode="&#xe225;" d="M256 480c-141.385 0-256-114.615-256-256s114.615-256 256-256 256 114.615 256 256-114.615 256-256 256zM352 352c17.673 0 32-14.327 32-32s-14.327-32-32-32-32 14.327-32 32 14.327 32 32 32zM160 352c17.673 0 32-14.327 32-32s-14.327-32-32-32-32 14.327-32 32 14.327 32 32 32zM256 64c-58.255 0-109.232 31.137-137.213 77.672l41.164 24.698c19.587-32.574 55.271-54.37 96.049-54.37s76.462 21.796 96.049 54.37l41.164-24.698c-27.981-46.535-78.958-77.672-137.213-77.672z" />
<glyph unicode="&#xe228;" d="M256-32c141.385 0 256 114.615 256 256s-114.615 256-256 256-256-114.615-256-256 114.615-256 256-256zM256 432c114.875 0 208-93.125 208-208s-93.125-208-208-208-208 93.125-208 208 93.125 208 208 208zM128 320c0 17.673 14.327 32 32 32s32-14.327 32-32c0-17.673-14.327-32-32-32-17.673 0-32 14.327-32 32zM320 320c0 17.673 14.327 32 32 32s32-14.327 32-32c0-17.673-14.327-32-32-32-17.673 0-32 14.327-32 32zM159.951 89.63l-41.164 24.698c27.981 46.535 78.958 77.672 137.213 77.672 58.254 0 109.231-31.137 137.213-77.672l-41.164-24.698c-19.587 32.574-55.271 54.37-96.049 54.37-40.779 0-76.462-21.796-96.049-54.37z" />
<glyph unicode="&#xe229;" d="M256 480c-141.385 0-256-114.615-256-256s114.615-256 256-256 256 114.615 256 256-114.615 256-256 256zM352 352c17.673 0 32-14.327 32-32s-14.327-32-32-32-32 14.327-32 32 14.327 32 32 32zM160 352c17.673 0 32-14.327 32-32s-14.327-32-32-32-32 14.327-32 32 14.327 32 32 32zM352.049 89.63c-19.587 32.574-55.272 54.37-96.049 54.37-40.778 0-76.462-21.796-96.049-54.37l-41.164 24.698c27.98 46.535 78.958 77.672 137.213 77.672 58.254 0 109.232-31.137 137.213-77.672l-41.164-24.698z" />
<glyph unicode="&#xe23f;" d="M448 288h-173.904c11.228 40.455 16.904 50.296 16.904 93 0 36.944-30.056 67-67 67-36.943 0-67-30.056-67-67 0-51.986-19.361-75.975-57.545-102.855-1.134-0.798-2.289-1.581-3.455-2.355v44.21h-96v-320h96v28.502c31.831-2.151 40.56-11.096 51.223-22.042 8.226-8.445 18.464-18.956 37.015-26.638 19.477-8.065 44.823-11.822 79.762-11.822h32.49c30.969 0 56.163 25.634 56.163 57.143 0 5.235-0.712 10.438-2.095 15.45 9.855 10.498 15.482 24.501 15.482 39.407 0 5.234-0.712 10.438-2.095 15.449 9.855 10.499 15.482 24.503 15.482 39.408 0 9.018-2.071 17.55-5.744 25.143h74.317c35.347 0 64 28.653 64 64 0 35.346-28.653 64-64 64zM48 32c-8.836 0-16 7.163-16 16s7.164 16 16 16 16-7.163 16-16-7.164-16-16-16zM445 192h-128v-32h3.266c13.323 0 24.163-11.279 24.163-25.143 0-8.685-4.234-16.645-11.327-21.293l-12.394-8.122 7.149-12.979c2.083-3.781 3.184-8.091 3.184-12.463 0-8.685-4.234-16.644-11.326-21.291l-12.395-8.122 7.149-12.98c2.083-3.781 3.184-8.091 3.184-12.464 0-13.863-10.84-25.143-24.163-25.143h-32.49c-63.281 0-76.044 19.103-89.556 32.975-13.794 14.16-29.245 29.992-75.444 33.364v167.187c7.878 4.132 15.35 8.632 22.329 13.545 48.196 33.929 73.671 69.773 73.671 133.929 0 15.991 15.010 29 31 29s30-13.009 30-29c0-42.83-6.207-52.706-18.48-93-3.062-11.371-5.961-22.635-7.938-31.667l218.418-0.333c17.645 0 32-14.355 32-32s-14.355-32-32-32z" />
<glyph unicode="&#xe241;" d="M64 288h173.904c-11.228 40.455-16.904 50.296-16.904 93 0 36.944 30.056 67 67 67 36.943 0 67-30.056 67-67 0-51.986 19.361-75.975 57.545-102.855 1.134-0.798 2.289-1.581 3.455-2.355v44.21h96v-320h-96v28.502c-31.831-2.151-40.56-11.096-51.223-22.042-8.226-8.445-18.464-18.956-37.015-26.638-19.477-8.065-44.823-11.822-79.762-11.822h-32.49c-30.969 0-56.163 25.634-56.163 57.143 0 5.235 0.712 10.438 2.095 15.45-9.855 10.498-15.482 24.501-15.482 39.407 0 5.234 0.712 10.438 2.095 15.449-9.855 10.499-15.482 24.503-15.482 39.408 0 9.018 2.071 17.55 5.744 25.143h-74.317c-35.347 0-64 28.653-64 64 0 35.346 28.653 64 64 64zM464 32c8.836 0 16 7.163 16 16s-7.164 16-16 16-16-7.163-16-16 7.164-16 16-16zM67 192h128v-32h-3.266c-13.323 0-24.163-11.279-24.163-25.143 0-8.685 4.234-16.645 11.327-21.293l12.394-8.122-7.149-12.979c-2.083-3.781-3.184-8.091-3.184-12.463 0-8.685 4.234-16.644 11.326-21.291l12.395-8.122-7.149-12.98c-2.083-3.781-3.184-8.091-3.184-12.464 0-13.863 10.84-25.143 24.163-25.143h32.49c63.281 0 76.044 19.103 89.556 32.975 13.794 14.16 29.245 29.992 75.444 33.364v167.187c-7.878 4.132-15.35 8.632-22.329 13.545-48.196 33.929-73.671 69.773-73.671 133.929 0 15.991-15.010 29-31 29s-30-13.009-30-29c0-42.83 6.207-52.706 18.48-93 3.062-11.371 5.961-22.635 7.938-31.667l-218.418-0.333c-17.645 0-32-14.355-32-32s14.355-32 32-32z" />
<glyph unicode="&#xe243;" d="M256 400.638l-172.417-368.638h344.834l-172.417 368.638zM256 480v0c11.035 0 22.070-7.441 30.442-22.324l218.536-435.556c16.745-29.766 2.5-54.12-31.651-54.12h-434.654c-34.152 0-48.395 24.354-31.652 54.12l218.537 435.556c8.372 14.883 19.407 22.324 30.442 22.324zM224 96c0 17.673 14.327 32 32 32s32-14.327 32-32c0-17.673-14.327-32-32-32-17.673 0-32 14.327-32 32zM256 288c17.673 0 32-14.327 32-32l-10-96h-44l-10 96c0 17.673 14.327 32 32 32z" />
<glyph unicode="&#xe244;" d="M256 432c-55.559 0-107.792-21.636-147.078-60.922s-60.922-91.519-60.922-147.078c0-55.559 21.636-107.792 60.922-147.078 39.286-39.286 91.519-60.922 147.078-60.922 55.559 0 107.792 21.636 147.078 60.922 39.286 39.286 60.922 91.519 60.922 147.078 0 55.559-21.636 107.792-60.922 147.078-39.286 39.286-91.519 60.922-147.078 60.922zM256 480v0c141.385 0 256-114.615 256-256s-114.615-256-256-256c-141.385 0-256 114.615-256 256 0 141.385 114.615 256 256 256zM224 128h64v-64h-64zM224 384h64v-192h-64z" />
<glyph unicode="&#xe245;" d="M224 128h64v-64h-64zM352 352c17.673 0 32-14.327 32-32v-96l-96-64h-64v32l96 64v32h-160v64h192zM256 432c-55.559 0-107.792-21.636-147.078-60.922s-60.922-91.519-60.922-147.078c0-55.559 21.636-107.792 60.922-147.078 39.286-39.286 91.519-60.922 147.078-60.922 55.559 0 107.792 21.636 147.078 60.922 39.286 39.286 60.922 91.519 60.922 147.078 0 55.559-21.636 107.792-60.922 147.078-39.286 39.286-91.519 60.922-147.078 60.922zM256 480v0c141.385 0 256-114.615 256-256s-114.615-256-256-256c-141.385 0-256 114.615-256 256 0 141.385 114.615 256 256 256z" />
<glyph unicode="&#xe24a;" d="M256 480c-141.385 0-256-114.615-256-256s114.615-256 256-256 256 114.615 256 256-114.615 256-256 256zM256 32c-106.039 0-192 85.961-192 192s85.961 192 192 192c106.039 0 192-85.961 192-192 0-106.039-85.961-192-192-192zM384 192h-96v-96h-64v96h-96v64h96v96h64v-96h96z" />
<glyph unicode="&#xe24c;" d="M256 480c-141.385 0-256-114.615-256-256s114.615-256 256-256 256 114.615 256 256-114.615 256-256 256zM256 32c-106.039 0-192 85.961-192 192s85.961 192 192 192c106.039 0 192-85.961 192-192 0-106.039-85.961-192-192-192zM128 256h256v-64h-256z" />
<glyph unicode="&#xe24e;" d="M256 480c-141.385 0-256-114.615-256-256s114.615-256 256-256 256 114.615 256 256-114.615 256-256 256zM256 16c-114.875 0-208 93.125-208 208s93.125 208 208 208 208-93.125 208-208-93.125-208-208-208zM224 352h64v-64h-64zM320 96h-128v32h32v96h-32v32h96v-128h32z" />
<glyph unicode="&#xe250;" d="M0 224c0-141.385 114.615-256 256-256 141.386 0 256 114.615 256 256s-114.614 256-256 256c-141.385 0-256-114.615-256-256zM448 224c0-36.618-10.256-70.84-28.044-99.956l-263.911 263.912c29.115 17.789 63.337 28.044 99.955 28.044 106.038 0 192-85.961 192-192zM64 224c0 36.618 10.256 70.839 28.045 99.956l263.911-263.912c-29.117-17.789-63.338-28.044-99.956-28.044-106.038 0-192 85.961-192 192z" />
<glyph unicode="&#xe251;" d="M256 480c-141.385 0-256-114.615-256-256s114.615-256 256-256 256 114.615 256 256-114.615 256-256 256zM256 32c-106.039 0-192 85.961-192 192s85.961 192 192 192c106.039 0 192-85.961 192-192 0-106.039-85.961-192-192-192zM352 173.256v-45.256h-45.256l-50.744 50.744-50.745-50.744h-45.255v45.256l50.745 50.744-50.745 50.745v45.255h45.255l50.745-50.745 50.744 50.745h45.256v-45.255l-50.744-50.745z" />
<glyph unicode="&#xe253;" d="M256 480c-141.385 0-256-114.615-256-256s114.615-256 256-256 256 114.615 256 256-114.615 256-256 256zM256 32c-106.039 0-192 85.961-192 192s85.961 192 192 192c106.039 0 192-85.961 192-192 0-106.039-85.961-192-192-192zM208 64l-106 138 47 49 59-75 185 151 23-23z" />
<glyph unicode="&#xe255;" d="M368 480h-224l-144-144v-224l144-144h224l144 144v224l-144 144zM392.897 111.994l-24.892-24.891c-6.846-6.845-18.046-6.845-24.89 0l-87.115 87.118-87.115-87.117c-6.845-6.844-18.046-6.844-24.89 0l-24.891 24.892c-6.845 6.846-6.845 18.046 0 24.89l87.116 87.114-87.116 87.115c-6.845 6.845-6.845 18.046 0 24.89l24.891 24.891c6.844 6.845 18.045 6.845 24.89 0l87.115-87.116 87.116 87.116c6.844 6.845 18.044 6.845 24.89 0l24.891-24.891c6.845-6.844 6.845-18.045 0-24.89l-87.116-87.115 87.116-87.116c6.844-6.844 6.844-18.044 0-24.89z" />
<glyph unicode="&#xe257;" d="M507.331 68.67c-0.002 0.002-0.004 0.004-0.006 0.005l-155.322 155.325 155.322 155.325c0.002 0.002 0.004 0.003 0.006 0.005 1.672 1.673 2.881 3.627 3.656 5.708 2.123 5.688 0.912 12.341-3.662 16.915l-73.373 73.373c-4.574 4.573-11.225 5.783-16.914 3.66-2.080-0.775-4.035-1.984-5.709-3.655 0-0.002-0.002-0.003-0.004-0.005l-155.324-155.326-155.324 155.325c-0.002 0.002-0.003 0.003-0.005 0.005-1.673 1.671-3.627 2.88-5.707 3.655-5.69 2.124-12.341 0.913-16.915-3.66l-73.374-73.374c-4.574-4.574-5.784-11.226-3.661-16.914 0.776-2.080 1.985-4.036 3.656-5.708 0.002-0.001 0.003-0.003 0.005-0.005l155.325-155.324-155.325-155.326c-0.001-0.002-0.003-0.003-0.004-0.005-1.671-1.673-2.88-3.627-3.657-5.707-2.124-5.688-0.913-12.341 3.661-16.915l73.374-73.373c4.575-4.574 11.226-5.784 16.915-3.661 2.080 0.776 4.035 1.985 5.708 3.656 0.001 0.002 0.003 0.003 0.005 0.005l155.324 155.325 155.324-155.325c0.002-0.001 0.004-0.003 0.006-0.004 1.674-1.672 3.627-2.881 5.707-3.657 5.689-2.123 12.342-0.913 16.914 3.661l73.373 73.374c4.574 4.574 5.785 11.227 3.662 16.915-0.776 2.080-1.985 4.034-3.657 5.707z" />
<glyph unicode="&#xe25a;" d="M491.529 448c-167.25-126.583-327.651-295.9-327.651-295.9l-115.59 103.9-48.288-49.189c47.508-44.651 157.581-162.599 194.816-206.811 104.795 175.090 213.739 305.668 317.184 425.077l-20.471 22.923z" />
<glyph unicode="&#xe25d;" d="M0 272v-96c0-8.836 7.164-16 16-16h480c8.836 0 16 7.164 16 16v96c0 8.836-7.164 16-16 16h-480c-8.836 0-16-7.164-16-16z" />
<glyph unicode="&#xe25e;" d="M496 288h-176v176c0 8.836-7.164 16-16 16h-96c-8.836 0-16-7.164-16-16v-176h-176c-8.836 0-16-7.164-16-16v-96c0-8.836 7.164-16 16-16h176v-176c0-8.836 7.164-16 16-16h96c8.836 0 16 7.164 16 16v176h176c8.836 0 16 7.164 16 16v96c0 8.836-7.164 16-16 16z" />
<glyph unicode="&#xe25f;" d="M448 448h-352c-17.6 0-32-14.4-32-32v-128h64v96h288v-352h-288v96h-64v-128c0-17.6 14.399-32 32-32h352c17.6 0 32 14.4 32 32v416c0 17.6-14.4 32-32 32zM192 64l144 144-144 144v-96h-192v-96h192z" />
<glyph unicode="&#xe260;" d="M496 208l-144 144v-96h-192v-96h192v-96zM416 384v32c0 17.6-14.4 32-32 32h-352c-17.6 0-32-14.4-32-32v-416c0-17.6 14.399-32 32-32h352c17.6 0 32 14.4 32 32v32h-352v352h352z" />
<glyph unicode="&#xe26b;" d="M96 416l320-192-320-192z" />
<glyph unicode="&#xe26c;" d="M64 416h160v-384h-160zM288 416h160v-384h-160z" />
<glyph unicode="&#xe26d;" d="M64 416h384v-384h-384z" />
<glyph unicode="&#xe28e;" d="M437.011 405.010c-46.326 46.328-110.318 74.99-181.011 74.99-109.744 0-203.345-69.064-239.749-166.094l59.938-22.477c27.302 72.773 97.503 124.571 179.811 124.571 53.020 0 101.010-21.5 135.753-56.247l-71.753-71.753h192v192l-74.989-74.99zM256 32c-53.020 0-101.013 21.496-135.756 56.244l71.756 71.756h-192v-192l74.997 74.997c46.323-46.331 110.309-74.997 181.003-74.997 109.745 0 203.346 69.064 239.75 166.094l-59.938 22.477c-27.302-72.773-97.503-124.571-179.812-124.571z" />
<glyph unicode="&#xe296;" d="M0 160l96-96 160 160 160-160 96 96-255.999 256z" />
<glyph unicode="&#xe297;" d="M192 480l-96-96 160-160-160-160 96-96 256 256z" />
<glyph unicode="&#xe298;" d="M512 288l-96 96-160-160-160 160-96-96 256-255.999z" />
<glyph unicode="&#xe299;" d="M320-32l96 96-160 160 160 160-96 96-256-256z" />
<glyph unicode="&#xe29a;" d="M384 160l-128 128-128-128z" />
<glyph unicode="&#xe29b;" d="M192.001 96l128 128-128 128z" />
<glyph unicode="&#xe29c;" d="M128 288l128-128 128 128z" />
<glyph unicode="&#xe29d;" d="M320.001 352l-128-128 128-128.001z" />
<glyph unicode="&#xe2d2;" d="M512 96l-256 256-256-256 256 128z" />
<glyph unicode="&#xe2d4;" d="M0 352l256-256 256 256-256-128z" />
<glyph unicode="&#xe2e3;" d="M192 352v-352h-64v352h-80l112 112 112-112zM320 96v352h64v-352h80l-112-112-112 112z" />
<glyph unicode="&#xe2e6;" d="M0 480v-512h512v512h-512zM480 0h-448v448h448v-448zM384 368l-160-160-96 96-64-64 160-160 224 224-64 64z" />
<glyph unicode="&#xe2e7;" d="M0 480v-512h512v512h-512zM480 0h-448v448h448v-448z" />
<glyph unicode="&#xe2e8;" d="M0 480v-512h512v512h-512zM480 0h-448v448h448v-448zM128 352h256v-256h-256z" />
<glyph unicode="&#xe2e9;" d="M256 480c-141.385 0-256-114.615-256-256s114.615-256 256-256 256 114.615 256 256-114.615 256-256 256zM256 32c-106.039 0-192 85.961-192 192s85.961 192 192 192c106.039 0 192-85.961 192-192 0-106.039-85.961-192-192-192zM160 224c0 53.019 42.981 96 96 96s96-42.981 96-96c0-53.019-42.981-96-96-96-53.019 0-96 42.981-96 96z" />
<glyph unicode="&#xe2ea;" d="M256 480c-141.385 0-256-114.615-256-256s114.615-256 256-256 256 114.615 256 256-114.615 256-256 256zM256 32c-106.039 0-192 85.961-192 192s85.961 192 192 192c106.039 0 192-85.961 192-192 0-106.039-85.961-192-192-192z" />
<glyph unicode="&#xe2f8;" d="M353.94 237.674c18.749 22.271 30.060 51.004 30.060 82.326 0 70.58-57.421 128-128 128h-160v-448h192c70.579 0 128 57.421 128 128 0 46.478-24.899 87.248-62.060 109.674zM192 384h50.75c27.984 0 50.75-28.71 50.75-64s-22.766-64-50.75-64h-50.75v128zM271.5 64h-79.5v128h79.5c29.225 0 53-28.71 53-64s-23.775-64-53-64z" />
<glyph unicode="&#xe2f9;" d="M352 448h64v-208c0-79.529-71.634-144-160-144-88.365 0-160 64.471-160 144v208h64v-208c0-20.083 9.119-39.352 25.677-54.253 18.448-16.602 43.423-25.747 70.323-25.747 26.9 0 51.875 9.145 70.323 25.747 16.558 14.901 25.677 34.17 25.677 54.253v208zM96 64h320v-64h-320z" />
<glyph unicode="&#xe2fa;" d="M448 448v-32h-64l-160-384h64v-32h-224v32h64l160 384h-64v32z" />
<glyph unicode="&#xe306;" d="M128 288v192h384v-192h-32v160h-320v-160zM512 192v-224h-384v224h32v-192h320v192zM256 256h64v-32h-64zM160 256h64v-32h-64zM352 256h64v-32h-64zM448 256h64v-32h-64zM0 336l96-96-96-96z" />
<glyph unicode="&#xe309;" d="M0 448v-448h512v448h-512zM192 160v96h128v-96h-128zM320 128v-96h-128v96h128zM320 384v-96h-128v96h128zM160 384v-96h-128v96h128zM32 256h128v-96h-128v96zM352 256h128v-96h-128v96zM352 288v96h128v-96h-128zM32 128h128v-96h-128v96zM352 32v96h128v-96h-128z" />
<glyph unicode="&#xe30a;" d="M192 384h64v-32h-64zM288 384h64v-32h-64zM448 384v-128h-96v32h64v64h-32v32zM160 288h64v-32h-64zM256 288h64v-32h-64zM96 352v-64h32v-32h-64v128h96v-32zM192 192h64v-32h-64zM288 192h64v-32h-64zM448 192v-128h-96v32h64v64h-32v32zM160 96h64v-32h-64zM256 96h64v-32h-64zM96 160v-64h32v-32h-64v128h96v-32zM480 448h-448v-448h448v448zM512 480v0-512h-512v512h512z" />
<glyph unicode="&#xe319;" d="M352 192l64 64v-256h-384v384h256l-64-64h-128v-256h256zM480 448v-176l-65.372 65.372-177.373-177.372h-45.255v45.256l177.372 177.372-65.372 65.372z" />
<glyph unicode="&#xe333;" d="M426.67 480h-341.327c-46.938 0-85.343-38.406-85.343-85.344v-341.314c0-46.967 38.406-85.342 85.344-85.342h341.326c46.938 0 85.33 38.374 85.33 85.342v341.314c0 46.938-38.392 85.344-85.33 85.344zM139.472 64.376c-23.985 0-43.472 19.346-43.472 43.314 0 23.842 19.486 43.406 43.472 43.406 24.079 0 43.53-19.564 43.53-43.406-0.001-23.968-19.452-43.314-43.53-43.314zM248.734 64.002c0 40.905-15.904 79.409-44.73 108.222-28.857 28.875-67.188 44.813-107.952 44.813v62.593c118.826 0 215.563-96.721 215.563-215.627l-62.881-0.001zM359.814 64.002c0 145.531-118.329 263.97-263.688 263.97v62.624c180.001 0 326.473-146.562 326.473-326.596l-62.785 0.002z" />
<glyph unicode="&#xe358;" d="M395.749 207.954c-0.647 64.841 52.879 95.938 55.271 97.483-30.076 44.010-76.925 50.039-93.621 50.736-39.871 4.037-77.798-23.474-98.033-23.474-20.184 0-51.409 22.877-84.476 22.276-43.458-0.646-83.529-25.269-105.906-64.19-45.152-78.349-11.563-194.42 32.445-257.963 21.504-31.102 47.146-66.038 80.813-64.79 32.421 1.294 44.681 20.979 83.878 20.979 39.197 0 50.214-20.979 84.525-20.335 34.887 0.648 56.991 31.699 78.346 62.898 24.695 36.084 34.863 71.019 35.462 72.813-0.774 0.353-68.030 26.118-68.704 103.567zM331.281 398.239c17.869 21.679 29.93 51.756 26.64 81.761-25.739-1.048-56.939-17.145-75.405-38.775-16.571-19.188-31.074-49.813-27.187-79.218 28.733-2.242 58.064 14.602 75.952 36.232z" />
<glyph unicode="&#xe35a;" d="M432 320c-17.6 0-32-14.4-32-32v-128c0-17.6 14.4-32 32-32s32 14.4 32 32v128c0 17.6-14.4 32-32 32zM48 320c-17.6 0-32-14.4-32-32v-128c0-17.6 14.4-32 32-32s32 14.4 32 32v128c0 17.6-14.401 32-32 32zM96 112c0-26.51 21.49-48 48-48h16v-64c0-17.6 14.4-32 32-32s32 14.4 32 32v64h32v-64c0-17.6 14.401-32 32-32s32 14.4 32 32v64h16c26.51 0 48 21.49 48 48v176h-288v-176zM299.299 435.253l20.252 38.903c1.016 1.951 0.25 4.379-1.701 5.395s-4.379 0.25-5.395-1.701l-20.559-39.493c-16.099 6.224-33.597 9.643-51.896 9.643-18.298 0-35.796-3.419-51.898-9.643l-20.558 39.492c-1.016 1.951-3.443 2.717-5.395 1.701s-2.717-3.443-1.701-5.395l20.25-38.904c-45.315-20.509-78.12-63.792-83.81-115.252h286.22c-5.688 51.462-38.493 94.744-83.809 115.254zM176 344.8c-12.813 0-23.2 10.387-23.2 23.2s10.387 23.2 23.2 23.2 23.2-10.387 23.2-23.2c-0.001-12.813-10.387-23.2-23.2-23.2zM304 344.8c-12.813 0-23.201 10.387-23.201 23.2s10.389 23.2 23.201 23.2 23.199-10.387 23.199-23.2c0-12.813-10.386-23.2-23.199-23.2z" />
<glyph unicode="&#xe35c;" d="M0.175 224l-0.175 156.037 192 26.072v-182.109zM224 410.759l255.936 37.241v-224h-255.936zM479.999 192l-0.063-224-255.936 36.008v187.992zM192 8.082l-191.844 26.297-0.010 157.621h191.854z" />
<glyph unicode="&#xe36f;" d="M440.317 414.613c12.849-6.288 24.047-15.243 32.251-26.241 17.268-23.15 22.118-54.686 14.418-93.733-7.78-39.513-25.208-72.867-50.583-97.022-4.641-4.851-9.611-9.373-14.902-13.54-27.178-21.401-61.499-32.714-99.254-32.714h-120.030l-32.282-151.363h-66.212l5.043 23.15h23.064l32.282 151.363h94.135c90.125 0 165.469 55.539 185.629 149.968 22.861 106.917-53.799 155.519-119.705 155.519h-224.639l-99.532-456.85h76.016l-12.016-55.15h131.83l32.282 151.363h94.135c90.125 0 165.469 55.539 185.629 149.968 16.858 78.84-20.402 125.966-67.559 145.282zM211.172 386.959h64.566c32.296 0 53.801-27.769 44.393-62.478-8.068-34.72-41.693-62.488-75.32-62.488h-61.879l28.24 124.966z" />
<glyph unicode="&#xe376;" d="M319.889 242.054h22.106l-25.506-113.089-33.163 159.005h-53.275l-38.557-159.005-28.908 159.005h-55.697l56.546-255.941h54.419l38.147 151.354 34.128-151.354h50.168l64.815 255.941h-85.223zM451.716 380.285l-71.432 71.431c-15.556 15.556-46.284 28.284-68.284 28.284h-240c-22 0-40-18-40-40v-432c0-22 18-40 40-40h368c22 0 40 18 40 40v304c0 22-12.728 52.729-28.284 68.285zM429.089 357.657c1.565-1.565 3.125-3.487 4.64-5.657h-81.729v81.728c2.17-1.515 4.092-3.075 5.657-4.64l71.432-71.431zM448 8c0-4.336-3.664-8-8-8h-368c-4.336 0-8 3.664-8 8v432c0 4.336 3.664 8 8 8h240c2.416 0 5.127-0.305 8-0.852v-127.148h127.148c0.547-2.873 0.852-5.583 0.852-8v-304z" />
<glyph unicode="&#xe377;" d="M371.514 288h-67.647l-47.866-70.516-47.87 70.516h-67.644l81.081-121.232-91.487-134.768h131.12v45.788h-30.278l25.078 37.497 55.698-83.285h70.221l-91.488 134.768zM451.716 380.285l-71.432 71.431c-15.556 15.556-46.284 28.284-68.284 28.284h-240c-22 0-40-18-40-40v-432c0-22 18-40 40-40h368c22 0 40 18 40 40v304c0 22-12.728 52.729-28.284 68.285zM429.089 357.657c1.565-1.565 3.125-3.487 4.64-5.657h-81.729v81.728c2.17-1.515 4.092-3.075 5.657-4.64l71.432-71.431zM448 8c0-4.336-3.664-8-8-8h-368c-4.336 0-8 3.664-8 8v432c0 4.336 3.664 8 8 8h240c2.416 0 5.127-0.305 8-0.852v-127.148h127.148c0.547-2.873 0.852-5.583 0.852-8v-304z" />
<glyph unicode="&#xe378;" d="M208 416h48v-32h-48zM160 384h48v-32h-48zM208 352h48v-32h-48zM160 320h48v-32h-48zM208 288h48v-32h-48zM160 256h48v-32h-48zM208 224v-32h-48v-112c0-8.837 7.163-16 16-16h64c8.837 0 16 7.163 16 16v144h-48zM240 96h-64v32h64v-32zM451.716 380.285l-71.432 71.431c-15.556 15.556-46.284 28.284-68.284 28.284h-240c-22 0-40-18-40-40v-432c0-22 18-40 40-40h368c22 0 40 18 40 40v304c0 22-12.728 52.729-28.284 68.285zM429.089 357.657c1.565-1.565 3.125-3.487 4.64-5.657h-81.729v81.728c2.17-1.515 4.092-3.075 5.657-4.64l71.432-71.431zM448 8c0-4.336-3.664-8-8-8h-368c-4.336 0-8 3.664-8 8v432c0 4.336 3.664 8 8 8h240c2.416 0 5.127-0.305 8-0.852v-127.148h127.148c0.547-2.873 0.852-5.583 0.852-8v-304z" />
<glyph unicode="&#xe37f;" d="M129.139 256.729l-73.266 126.901c46.909 58.732 119.117 96.37 200.127 96.37 93.716 0 175.655-50.368 220.266-125.5h-208.885c-3.752 0.325-7.546 0.5-11.381 0.5-60.937 0-112.289-41.822-126.861-98.271zM347.653 317.5h146.73c11.37-28.965 17.617-60.502 17.617-93.5 0-140.413-113.050-254.402-253.093-255.963l104.697 181.339c14.74 21.189 23.396 46.913 23.396 74.624 0 36.585-15.082 69.71-39.347 93.5zM163 224c0 51.28 41.72 93 93 93s93-41.72 93-93c0-51.28-41.72-93-93-93-51.28 0-93 41.72-93 93zM291.091 97.779l-73.289-126.939c-123.266 18.442-217.802 124.758-217.802 253.16 0 45.609 11.942 88.423 32.848 125.512l104.515-181.027c20.934-44.556 66.238-75.485 118.637-75.485 12.15 0 23.918 1.67 35.091 4.779z" />
</font>
</defs>
</svg>
